  0
SECTION
  2
HEADER
  9
$ACADVER
  1
AC1015
  9
$ACADMAINTVER
 70
    18
  9
$DWGCODEPAGE
  3
ANSI_1252
  9
$INSBASE
 10
0.0
 20
0.0
 30
0.0
  9
$EXTMIN
 10
0.0
 20
0.0
 30
0.0
  9
$EXTMAX
 10
594.0
 20
420.0
 30
0.0
  9
$LIMMIN
 10
0.0
 20
0.0
  9
$LIMMAX
 10
594.0
 20
420.0
  9
$ORTHOMODE
 70
     0
  9
$REGENMODE
 70
     1
  9
$FILLMODE
 70
     1
  9
$QTEXTMODE
 70
     0
  9
$MIRRTEXT
 70
     0
  9
$LTSCALE
 40
2.0
  9
$ATTMODE
 70
     1
  9
$TEXTSIZE
 40
0.2
  9
$TRACEWID
 40
0.05
  9
$TEXTSTYLE
  7
Standard
  9
$CLAYER
  8
0
  9
$CELTYPE
  6
ByLayer
  9
$CECOLOR
 62
   256
  9
$CELTSCALE
 40
1.0
  9
$DISPSILH
 70
     0
  9
$DIMSCALE
 40
1.0
  9
$DIMASZ
 40
1.799999999999999
  9
$DIMEXO
 40
0.0625
  9
$DIMDLI
 40
0.38
  9
$DIMRND
 40
0.0
  9
$DIMDLE
 40
0.0
  9
$DIMEXE
 40
0.18
  9
$DIMTP
 40
0.0
  9
$DIMTM
 40
0.0
  9
$DIMTXT
 40
0.3499999940395355
  9
$DIMCEN
 40
0.09
  9
$DIMTSZ
 40
0.0
  9
$DIMTOL
 70
     0
  9
$DIMLIM
 70
     0
  9
$DIMTIH
 70
     1
  9
$DIMTOH
 70
     1
  9
$DIMSE1
 70
     0
  9
$DIMSE2
 70
     0
  9
$DIMTAD
 70
     0
  9
$DIMZIN
 70
     0
  9
$DIMBLK
  1

  9
$DIMASO
 70
     1
  9
$DIMSHO
 70
     1
  9
$DIMPOST
  1

  9
$DIMAPOST
  1

  9
$DIMALT
 70
     0
  9
$DIMALTD
 70
     2
  9
$DIMALTF
 40
25.4
  9
$DIMLFAC
 40
1.0
  9
$DIMTOFL
 70
     0
  9
$DIMTVP
 40
0.0
  9
$DIMTIX
 70
     0
  9
$DIMSOXD
 70
     0
  9
$DIMSAH
 70
     0
  9
$DIMBLK1
  1

  9
$DIMBLK2
  1

  9
$DIMSTYLE
  2
Standard
  9
$DIMCLRD
 70
     0
  9
$DIMCLRE
 70
     0
  9
$DIMCLRT
 70
     0
  9
$DIMTFAC
 40
1.0
  9
$DIMGAP
 40
0.09
  9
$DIMJUST
 70
     0
  9
$DIMSD1
 70
     0
  9
$DIMSD2
 70
     0
  9
$DIMTOLJ
 70
     1
  9
$DIMTZIN
 70
     0
  9
$DIMALTZ
 70
     0
  9
$DIMALTTZ
 70
     0
  9
$DIMUPT
 70
     0
  9
$DIMDEC
 70
     4
  9
$DIMTDEC
 70
     4
  9
$DIMALTU
 70
     2
  9
$DIMALTTD
 70
     2
  9
$DIMTXSTY
  7
Standard
  9
$DIMAUNIT
 70
     0
  9
$DIMADEC
 70
     0
  9
$DIMALTRND
 40
0.0
  9
$DIMAZIN
 70
     0
  9
$DIMDSEP
 70
    46
  9
$DIMATFIT
 70
     3
  9
$DIMFRAC
 70
     0
  9
$DIMLDRBLK
  1

  9
$DIMLUNIT
 70
     2
  9
$DIMLWD
 70
    -2
  9
$DIMLWE
 70
    -2
  9
$DIMTMOVE
 70
     0
  9
$LUNITS
 70
     2
  9
$LUPREC
 70
     4
  9
$SKETCHINC
 40
0.1
  9
$FILLETRAD
 40
0.0
  9
$AUNITS
 70
     0
  9
$AUPREC
 70
     0
  9
$MENU
  1
.
  9
$ELEVATION
 40
0.0
  9
$PELEVATION
 40
0.0
  9
$THICKNESS
 40
0.0
  9
$LIMCHECK
 70
     0
  9
$CHAMFERA
 40
0.0
  9
$CHAMFERB
 40
0.0
  9
$CHAMFERC
 40
0.0
  9
$CHAMFERD
 40
0.0
  9
$SKPOLY
 70
     0
  9
$TDCREATE
 40
2454112.486726620
  9
$TDUCREATE
 40
2454112.445059954
  9
$TDUPDATE
 40
2454112.486726620
  9
$TDUUPDATE
 40
2454112.445059954
  9
$TDINDWG
 40
0.0000632986
  9
$TDUSRTIMER
 40
0.0000632986
  9
$USRTIMER
 70
     1
  9
$ANGBASE
 50
0.0
  9
$ANGDIR
 70
     0
  9
$PDMODE
 70
     0
  9
$PDSIZE
 40
0.0
  9
$PLINEWID
 40
0.0
  9
$SPLFRAME
 70
     0
  9
$SPLINETYPE
 70
     6
  9
$SPLINESEGS
 70
     8
  9
$HANDSEED
  5
968
  9
$SURFTAB1
 70
     6
  9
$SURFTAB2
 70
     6
  9
$SURFTYPE
 70
     6
  9
$SURFU
 70
     6
  9
$SURFV
 70
     6
  9
$UCSBASE
  2

  9
$UCSNAME
  2

  9
$UCSORG
 10
0.0
 20
0.0
 30
0.0
  9
$UCSXDIR
 10
1.0
 20
0.0
 30
0.0
  9
$UCSYDIR
 10
0.0
 20
1.0
 30
0.0
  9
$UCSORTHOREF
  2

  9
$UCSORTHOVIEW
 70
     0
  9
$UCSORGTOP
 10
0.0
 20
0.0
 30
0.0
  9
$UCSORGBOTTOM
 10
0.0
 20
0.0
 30
0.0
  9
$UCSORGLEFT
 10
0.0
 20
0.0
 30
0.0
  9
$UCSORGRIGHT
 10
0.0
 20
0.0
 30
0.0
  9
$UCSORGFRONT
 10
0.0
 20
0.0
 30
0.0
  9
$UCSORGBACK
 10
0.0
 20
0.0
 30
0.0
  9
$PUCSBASE
  2

  9
$PUCSNAME
  2

  9
$PUCSORG
 10
0.0
 20
0.0
 30
0.0
  9
$PUCSXDIR
 10
1.0
 20
0.0
 30
0.0
  9
$PUCSYDIR
 10
0.0
 20
1.0
 30
0.0
  9
$PUCSORTHOREF
  2

  9
$PUCSORTHOVIEW
 70
     0
  9
$PUCSORGTOP
 10
0.0
 20
0.0
 30
0.0
  9
$PUCSORGBOTTOM
 10
0.0
 20
0.0
 30
0.0
  9
$PUCSORGLEFT
 10
0.0
 20
0.0
 30
0.0
  9
$PUCSORGRIGHT
 10
0.0
 20
0.0
 30
0.0
  9
$PUCSORGFRONT
 10
0.0
 20
0.0
 30
0.0
  9
$PUCSORGBACK
 10
0.0
 20
0.0
 30
0.0
  9
$USERI1
 70
     0
  9
$USERI2
 70
     0
  9
$USERI3
 70
     0
  9
$USERI4
 70
     0
  9
$USERI5
 70
     0
  9
$USERR1
 40
0.0
  9
$USERR2
 40
0.0
  9
$USERR3
 40
0.0
  9
$USERR4
 40
0.0
  9
$USERR5
 40
0.0
  9
$WORLDVIEW
 70
     1
  9
$SHADEDGE
 70
     3
  9
$SHADEDIF
 70
    70
  9
$TILEMODE
 70
     1
  9
$MAXACTVP
 70
    64
  9
$PINSBASE
 10
0.0
 20
0.0
 30
0.0
  9
$PLIMCHECK
 70
     0
  9
$PEXTMIN
 10
0.0
 20
0.0
 30
0.0
  9
$PEXTMAX
 10
594.0
 20
420.0
 30
0.0
  9
$PLIMMIN
 10
0.0
 20
0.0
  9
$PLIMMAX
 10
594.0
 20
420.0
  9
$UNITMODE
 70
     0
  9
$VISRETAIN
 70
     1
  9
$PLINEGEN
 70
     0
  9
$PSLTSCALE
 70
     1
  9
$TREEDEPTH
 70
  3020
  9
$CMLSTYLE
  2
Standard
  9
$CMLJUST
 70
     0
  9
$CMLSCALE
 40
1.0
  9
$PROXYGRAPHICS
 70
     1
  9
$MEASUREMENT
 70
     1
  9
$CELWEIGHT
370
    -1
  9
$ENDCAPS
280
     0
  9
$JOINSTYLE
280
     0
  9
$LWDISPLAY
290
     0
  9
$INSUNITS
 70
     0
  9
$HYPERLINKBASE
  1

  9
$STYLESHEET
  1

  9
$XEDIT
290
     1
  9
$CEPSNTYPE
380
     0
  9
$PSTYLEMODE
290
     1
  9
$FINGERPRINTGUID
  2
{6128091B-BC46-450C-8866-2904B6A3AB44}
  9
$VERSIONGUID
  2
{76FFA570-40A0-4B24-9486-C829538837FD}
  9
$EXTNAMES
290
     1
  9
$PSVPSCALE
 40
0.0
  9
$OLESTARTUP
290
     0
  0
ENDSEC
  0
SECTION
  2
CLASSES
  0
CLASS
  1
ACDBDICTIONARYWDFLT
  2
AcDbDictionaryWithDefault
  3
ObjectDBX Classes
 90
        0
280
     0
281
     0
  0
CLASS
  1
MATERIAL
  2
AcDbMaterial
  3
ObjectDBX Classes
 90
     1024
280
     0
281
     0
  0
CLASS
  1
VISUALSTYLE
  2
AcDbVisualStyle
  3
ObjectDBX Classes
 90
     4095
280
     0
281
     0
  0
CLASS
  1
TABLESTYLE
  2
AcDbTableStyle
  3
ObjectDBX Classes
 90
     4095
280
     0
281
     0
  0
CLASS
  1
DICTIONARYVAR
  2
AcDbDictionaryVar
  3
ObjectDBX Classes
 90
        0
280
     0
281
     0
  0
CLASS
  1
ACDBPLACEHOLDER
  2
AcDbPlaceHolder
  3
ObjectDBX Classes
 90
        0
280
     0
281
     0
  0
CLASS
  1
LAYOUT
  2
AcDbLayout
  3
ObjectDBX Classes
 90
        0
280
     0
281
     0
  0
ENDSEC
  0
SECTION
  2
TABLES
  0
TABLE
  2
VPORT
  5
8
330
0
100
AcDbSymbolTable
 70
     1
  0
VPORT
  5
28
330
8
100
AcDbSymbolTableRecord
100
AcDbViewportTableRecord
  2
*Active
 70
     0
 10
0.0
 20
0.0
 11
1.0
 21
1.0
 12
297.0
 22
210.0
 13
0.0
 23
0.0
 14
1.0
 24
1.0
 15
0.0
 25
0.0
 16
0.0
 26
0.0
 36
1.0
 17
0.0
 27
0.0
 37
0.0
 40
420.0
 41
1.414285714285714
 42
50.0
 43
0.0
 44
0.0
 50
0.0
 51
0.0
 71
     0
 72
   100
 73
     1
 74
     1
 75
     0
 76
     0
 77
     0
 78
     0
281
     0
 65
     1
110
0.0
120
0.0
130
0.0
111
1.0
121
0.0
131
0.0
112
0.0
122
1.0
132
0.0
 79
     0
146
0.0
  0
ENDTAB
  0
TABLE
  2
LTYPE
  5
5
330
0
100
AcDbSymbolTable
 70
    59
  0
LTYPE
  5
29
330
5
100
AcDbSymbolTableRecord
100
AcDbLinetypeTableRecord
  2
ByBlock
 70
     0
  3

 72
    65
 73
     0
 40
0.0
  0
LTYPE
  5
2A
330
5
100
AcDbSymbolTableRecord
100
AcDbLinetypeTableRecord
  2
ByLayer
 70
     0
  3

 72
    65
 73
     0
 40
0.0
  0
LTYPE
  5
2B
330
5
100
AcDbSymbolTableRecord
100
AcDbLinetypeTableRecord
  2
Continuous
 70
     0
  3
Solid line
 72
    65
 73
     0
 40
0.0
  0
LTYPE
  5
40
330
5
100
AcDbSymbolTableRecord
100
AcDbLinetypeTableRecord
  2
Section_View_Lines
 70
     0
  3
Section View Lines
 72
    65
 73
     4
 40
0.8406
 49
0.6614
 74
     0
 49
-0.0827
 74
     0
 49
0.0138
 74
     0
 49
-0.0827
 74
     0
  0
LTYPE
  5
41
330
5
100
AcDbSymbolTableRecord
100
AcDbLinetypeTableRecord
  2
CHAIN
 70
     0
  3
Chain ____ _ ____ _ ____ _ ____ _ ____ _ ____
 72
    65
 73
     4
 40
0.3543
 49
0.2362
 74
     0
 49
-0.0295
 74
     0
 49
0.0591
 74
     0
 49
-0.0295
 74
     0
  0
LTYPE
  5
42
330
5
100
AcDbSymbolTableRecord
100
AcDbLinetypeTableRecord
  2
DASH_DOT
 70
     0
  3
Dash dot _._._._._._._._._._._._._._._.
 72
    65
 73
     4
 40
0.37
 49
0.24
 74
     0
 49
-0.06
 74
     0
 49
0.01
 74
     0
 49
-0.06
 74
     0
  0
LTYPE
  5
43
330
5
100
AcDbSymbolTableRecord
100
AcDbLinetypeTableRecord
  2
DASH_DOUBLE_DOT
 70
     0
  3
Dash Double Dot __ __ . __ __ . __ __ . __ _
 72
    65
 73
     6
 40
0.4398
 49
0.24
 74
     0
 49
-0.06
 74
     0
 49
0.0098
 74
     0
 49
-0.06
 74
     0
 49
0.01
 74
     0
 49
-0.06
 74
     0
  0
LTYPE
  5
44
330
5
100
AcDbSymbolTableRecord
100
AcDbLinetypeTableRecord
  2
DASH_TRIPLE_DOT
 70
     0
  3
Dash Triple-Dot _ . . . _ . . . _ . . . _
 72
    65
 73
     8
 40
0.51
 49
0.24
 74
     0
 49
-0.06
 74
     0
 49
0.01
 74
     0
 49
-0.06
 74
     0
 49
0.01
 74
     0
 49
-0.06
 74
     0
 49
0.01
 74
     0
 49
-0.06
 74
     0
  0
LTYPE
  5
45
330
5
100
AcDbSymbolTableRecord
100
AcDbLinetypeTableRecord
  2
DASHED
 70
     0
  3
Dashed __ __ __ __ __ __ __ __ __ __ __ __ __ _
 72
    65
 73
     2
 40
0.2067
 49
0.1654
 74
     0
 49
-0.0413
 74
     0
  0
LTYPE
  5
46
330
5
100
AcDbSymbolTableRecord
100
AcDbLinetypeTableRecord
  2
DASHED_SPACE
 70
     0
  3
Dashed Space _._._._._._._._._._._._._._._.
 72
    65
 73
     2
 40
0.2067
 49
0.1654
 74
     0
 49
-0.0413
 74
     0
  0
LTYPE
  5
47
330
5
100
AcDbSymbolTableRecord
100
AcDbLinetypeTableRecord
  2
DOTTED
 70
     0
  3
Dotted . . . . . . . . . . . . . . . . . . . . 
 72
    65
 73
     2
 40
0.0482
 49
0.0069
 74
     0
 49
-0.0413
 74
     0
  0
LTYPE
  5
48
330
5
100
AcDbSymbolTableRecord
100
AcDbLinetypeTableRecord
  2
DOUBLE_DASH_CHAIN
 70
     0
  3
Double Dash Chain ___ _ _ ___ _ _ ___ _ _ ___ _
 72
    65
 73
     6
 40
1.240299999999999
 49
0.6614
 74
     0
 49
-0.0827
 74
     0
 49
0.1654
 74
     0
 49
-0.0827
 74
     0
 49
0.1654
 74
     0
 49
-0.0827
 74
     0
  0
LTYPE
  5
49
330
5
100
AcDbSymbolTableRecord
100
AcDbLinetypeTableRecord
  2
DOUBLE_DASH_DOT
 70
     0
  3
Double Dash Dot __ __ . __ __ . __ __ . __ _
 72
    65
 73
     6
 40
0.67
 49
0.24
 74
     0
 49
-0.06
 74
     0
 49
0.24
 74
     0
 49
-0.06
 74
     0
 49
0.01
 74
     0
 49
-0.06
 74
     0
  0
LTYPE
  5
4A
330
5
100
AcDbSymbolTableRecord
100
AcDbLinetypeTableRecord
  2
DOUBLE_DASH_DOUBLE_DOT
 70
     0
  3
Double-dash double-dot _ _ . . _ _ . . _
 72
    65
 73
     8
 40
0.7400000000000001
 49
0.24
 74
     0
 49
-0.06
 74
     0
 49
0.24
 74
     0
 49
-0.06
 74
     0
 49
0.01
 74
     0
 49
-0.06
 74
     0
 49
0.01
 74
     0
 49
-0.06
 74
     0
  0
LTYPE
  5
4B
330
5
100
AcDbSymbolTableRecord
100
AcDbLinetypeTableRecord
  2
DOUBLE_DASH_TRIPLE_DOT
 70
     0
  3
Double Dash Triple Dot __ __ . . . __ __ . . .
 72
    65
 73
    10
 40
0.8100000000000001
 49
0.24
 74
     0
 49
-0.06
 74
     0
 49
0.24
 74
     0
 49
-0.06
 74
     0
 49
0.01
 74
     0
 49
-0.06
 74
     0
 49
0.01
 74
     0
 49
-0.06
 74
     0
 49
0.01
 74
     0
 49
-0.06
 74
     0
  0
LTYPE
  5
4C
330
5
100
AcDbSymbolTableRecord
100
AcDbLinetypeTableRecord
  2
LONG_DASH_DOTTED
 70
     0
  3
Long-Dash Dot ____ . ____ . ____ . ____ . _
 72
    65
 73
     4
 40
0.3001
 49
0.2362
 74
     0
 49
-0.0295
 74
     0
 49
0.0049
 74
     0
 49
-0.0295
 74
     0
  0
LTYPE
  5
4D
330
5
100
AcDbSymbolTableRecord
100
AcDbLinetypeTableRecord
  2
LONG_DASH_DOUBLE_DOT
 70
     0
  3
Long Dash Double Dot ____ . . ____ . . ____ . .
 72
    65
 73
     6
 40
0.3345
 49
0.2362
 74
     0
 49
-0.0295
 74
     0
 49
0.0049
 74
     0
 49
-0.0295
 74
     0
 49
0.0049
 74
     0
 49
-0.0295
 74
     0
  0
LTYPE
  5
4E
330
5
100
AcDbSymbolTableRecord
100
AcDbLinetypeTableRecord
  2
LONG_DASH_TRIPLE_DOT
 70
     0
  3
Long Dash Triple Dot ____ ... ____ ... ____
 72
    65
 73
     8
 40
0.75
 49
0.48
 74
     0
 49
-0.06
 74
     0
 49
0.01
 74
     0
 49
-0.06
 74
     0
 49
0.01
 74
     0
 49
-0.06
 74
     0
 49
0.01
 74
     0
 49
-0.06
 74
     0
  0
LTYPE
  5
4F
330
5
100
AcDbSymbolTableRecord
100
AcDbLinetypeTableRecord
  2
BORDER
 70
     0
  3
Border __ __ . __ __ . __ __ . __ __ . __ __ .
 72
    65
 73
     6
 40
44.45
 49
12.7
 74
     0
 49
-6.349999999999999
 74
     0
 49
12.7
 74
     0
 49
-6.349999999999999
 74
     0
 49
0.0
 74
     0
 49
-6.349999999999999
 74
     0
  0
LTYPE
  5
50
330
5
100
AcDbSymbolTableRecord
100
AcDbLinetypeTableRecord
  2
BORDER2
 70
     0
  3
Border (.5x) __.__.__.__.__.__.__.__.__.__.__.
 72
    65
 73
     6
 40
22.225
 49
6.349999999999999
 74
     0
 49
-3.174999999999999
 74
     0
 49
6.349999999999999
 74
     0
 49
-3.174999999999999
 74
     0
 49
0.0
 74
     0
 49
-3.174999999999999
 74
     0
  0
LTYPE
  5
51
330
5
100
AcDbSymbolTableRecord
100
AcDbLinetypeTableRecord
  2
BORDERX2
 70
     0
  3
Border (2x) ____  ____  .  ____  ____  .  ___
 72
    65
 73
     6
 40
88.9
 49
25.4
 74
     0
 49
-12.7
 74
     0
 49
25.4
 74
     0
 49
-12.7
 74
     0
 49
0.0
 74
     0
 49
-12.7
 74
     0
  0
LTYPE
  5
52
330
5
100
AcDbSymbolTableRecord
100
AcDbLinetypeTableRecord
  2
CENTER
 70
     0
  3
Center ____ _ ____ _ ____ _ ____ _ ____ _ ____
 72
    65
 73
     4
 40
50.8
 49
31.75
 74
     0
 49
-6.349999999999999
 74
     0
 49
6.349999999999999
 74
     0
 49
-6.349999999999999
 74
     0
  0
LTYPE
  5
53
330
5
100
AcDbSymbolTableRecord
100
AcDbLinetypeTableRecord
  2
CENTER2
 70
     0
  3
Center (.5x) ___ _ ___ _ ___ _ ___ _ ___ _ ___
 72
    65
 73
     4
 40
28.575
 49
19.05
 74
     0
 49
-3.174999999999999
 74
     0
 49
3.174999999999999
 74
     0
 49
-3.174999999999999
 74
     0
  0
LTYPE
  5
54
330
5
100
AcDbSymbolTableRecord
100
AcDbLinetypeTableRecord
  2
CENTERX2
 70
     0
  3
Center (2x) ________  __  ________  __  _____
 72
    65
 73
     4
 40
101.6
 49
63.5
 74
     0
 49
-12.7
 74
     0
 49
12.7
 74
     0
 49
-12.7
 74
     0
  0
LTYPE
  5
55
330
5
100
AcDbSymbolTableRecord
100
AcDbLinetypeTableRecord
  2
DASHDOT2
 70
     0
  3
Dash dot (.5x) _._._._._._._._._._._._._._._.
 72
    65
 73
     4
 40
12.7
 49
6.349999999999999
 74
     0
 49
-3.174999999999999
 74
     0
 49
0.0
 74
     0
 49
-3.174999999999999
 74
     0
  0
LTYPE
  5
56
330
5
100
AcDbSymbolTableRecord
100
AcDbLinetypeTableRecord
  2
DASHDOTX2
 70
     0
  3
Dash dot (2x) ____  .  ____  .  ____  .  ___
 72
    65
 73
     4
 40
50.8
 49
25.4
 74
     0
 49
-12.7
 74
     0
 49
0.0
 74
     0
 49
-12.7
 74
     0
  0
LTYPE
  5
57
330
5
100
AcDbSymbolTableRecord
100
AcDbLinetypeTableRecord
  2
DASHED2
 70
     0
  3
Dashed (.5x) _ _ _ _ _ _ _ _ _ _ _ _ _ _ _ _ _
 72
    65
 73
     2
 40
9.524999999999998
 49
6.349999999999999
 74
     0
 49
-3.174999999999999
 74
     0
  0
LTYPE
  5
58
330
5
100
AcDbSymbolTableRecord
100
AcDbLinetypeTableRecord
  2
DASHEDX2
 70
     0
  3
Dashed (2x) ____  ____  ____  ____  ____  ___
 72
    65
 73
     2
 40
38.1
 49
25.4
 74
     0
 49
-12.7
 74
     0
  0
LTYPE
  5
59
330
5
100
AcDbSymbolTableRecord
100
AcDbLinetypeTableRecord
  2
DIVIDE
 70
     0
  3
Divide ____ . . ____ . . ____ . . ____ . . ____
 72
    65
 73
     6
 40
31.75
 49
12.7
 74
     0
 49
-6.349999999999999
 74
     0
 49
0.0
 74
     0
 49
-6.349999999999999
 74
     0
 49
0.0
 74
     0
 49
-6.349999999999999
 74
     0
  0
LTYPE
  5
5A
330
5
100
AcDbSymbolTableRecord
100
AcDbLinetypeTableRecord
  2
DIVIDE2
 70
     0
  3
Divide (.5x) __..__..__..__..__..__..__..__.._
 72
    65
 73
     6
 40
15.875
 49
6.349999999999999
 74
     0
 49
-3.174999999999999
 74
     0
 49
0.0
 74
     0
 49
-3.174999999999999
 74
     0
 49
0.0
 74
     0
 49
-3.174999999999999
 74
     0
  0
LTYPE
  5
5B
330
5
100
AcDbSymbolTableRecord
100
AcDbLinetypeTableRecord
  2
DIVIDEX2
 70
     0
  3
Divide (2x) ________  .  .  ________  .  .  _
 72
    65
 73
     6
 40
63.49999999999999
 49
25.4
 74
     0
 49
-12.7
 74
     0
 49
0.0
 74
     0
 49
-12.7
 74
     0
 49
0.0
 74
     0
 49
-12.7
 74
     0
  0
LTYPE
  5
5C
330
5
100
AcDbSymbolTableRecord
100
AcDbLinetypeTableRecord
  2
DOT
 70
     0
  3
Dot . . . . . . . . . . . . . . . . . . . . . .
 72
    65
 73
     2
 40
6.349999999999999
 49
0.0
 74
     0
 49
-6.349999999999999
 74
     0
  0
LTYPE
  5
5D
330
5
100
AcDbSymbolTableRecord
100
AcDbLinetypeTableRecord
  2
DOT2
 70
     0
  3
Dot (.5x) .....................................
 72
    65
 73
     2
 40
3.174999999999999
 49
0.0
 74
     0
 49
-3.174999999999999
 74
     0
  0
LTYPE
  5
5E
330
5
100
AcDbSymbolTableRecord
100
AcDbLinetypeTableRecord
  2
DOTX2
 70
     0
  3
Dot (2x) .  .  .  .  .  .  .  .  .  .  .  .  . 
 72
    65
 73
     2
 40
12.7
 49
0.0
 74
     0
 49
-12.7
 74
     0
  0
LTYPE
  5
5F
330
5
100
AcDbSymbolTableRecord
100
AcDbLinetypeTableRecord
  2
HIDDEN
 70
     0
  3
Hidden __ __ __ __ __ __ __ __ __ __ __ __ __ _
 72
    65
 73
     2
 40
9.524999999999998
 49
6.349999999999999
 74
     0
 49
-3.174999999999999
 74
     0
  0
LTYPE
  5
60
330
5
100
AcDbSymbolTableRecord
100
AcDbLinetypeTableRecord
  2
HIDDEN2
 70
     0
  3
Hidden (.5x) _ _ _ _ _ _ _ _ _ _ _ _ _ _ _ _ _
 72
    65
 73
     2
 40
4.762499999999999
 49
3.174999999999999
 74
     0
 49
-1.587499999999999
 74
     0
  0
LTYPE
  5
61
330
5
100
AcDbSymbolTableRecord
100
AcDbLinetypeTableRecord
  2
HIDDENX2
 70
     0
  3
Hidden (2x) ____ ____ ____ ____ ____ ____ ____
 72
    65
 73
     2
 40
19.05
 49
12.7
 74
     0
 49
-6.349999999999999
 74
     0
  0
LTYPE
  5
62
330
5
100
AcDbSymbolTableRecord
100
AcDbLinetypeTableRecord
  2
PHANTOM
 70
     0
  3
Phantom ______  __  __  ______  __  __  ______
 72
    65
 73
     6
 40
63.5
 49
31.75
 74
     0
 49
-6.349999999999999
 74
     0
 49
6.349999999999999
 74
     0
 49
-6.349999999999999
 74
     0
 49
6.349999999999999
 74
     0
 49
-6.349999999999999
 74
     0
  0
LTYPE
  5
63
330
5
100
AcDbSymbolTableRecord
100
AcDbLinetypeTableRecord
  2
PHANTOM2
 70
     0
  3
Phantom (.5x) ___ _ _ ___ _ _ ___ _ _ ___ _ _
 72
    65
 73
     6
 40
31.75
 49
15.875
 74
     0
 49
-3.174999999999999
 74
     0
 49
3.174999999999999
 74
     0
 49
-3.174999999999999
 74
     0
 49
3.174999999999999
 74
     0
 49
-3.174999999999999
 74
     0
  0
LTYPE
  5
64
330
5
100
AcDbSymbolTableRecord
100
AcDbLinetypeTableRecord
  2
PHANTOMX2
 70
     0
  3
Phantom (2x) ____________    ____    ____   _
 72
    65
 73
     6
 40
127.0
 49
63.5
 74
     0
 49
-12.7
 74
     0
 49
12.7
 74
     0
 49
-12.7
 74
     0
 49
12.7
 74
     0
 49
-12.7
 74
     0
  0
LTYPE
  5
65
330
5
100
AcDbSymbolTableRecord
100
AcDbLinetypeTableRecord
  2
ACAD_ISO02W100
 70
     0
  3
ISO dash __ __ __ __ __ __ __ __ __ __ __ __ __
 72
    65
 73
     2
 40
15.0
 49
12.0
 74
     0
 49
-3.0
 74
     0
  0
LTYPE
  5
66
330
5
100
AcDbSymbolTableRecord
100
AcDbLinetypeTableRecord
  2
ACAD_ISO03W100
 70
     0
  3
ISO dash space __    __    __    __    __    __
 72
    65
 73
     2
 40
30.0
 49
12.0
 74
     0
 49
-18.0
 74
     0
  0
LTYPE
  5
67
330
5
100
AcDbSymbolTableRecord
100
AcDbLinetypeTableRecord
  2
ACAD_ISO04W100
 70
     0
  3
ISO long-dash dot ____ . ____ . ____ . ____ . _
 72
    65
 73
     4
 40
30.0
 49
24.0
 74
     0
 49
-3.0
 74
     0
 49
0.0
 74
     0
 49
-3.0
 74
     0
  0
LTYPE
  5
68
330
5
100
AcDbSymbolTableRecord
100
AcDbLinetypeTableRecord
  2
ACAD_ISO05W100
 70
     0
  3
ISO long-dash double-dot ____ .. ____ .. ____ .
 72
    65
 73
     6
 40
33.0
 49
24.0
 74
     0
 49
-3.0
 74
     0
 49
0.0
 74
     0
 49
-3.0
 74
     0
 49
0.0
 74
     0
 49
-3.0
 74
     0
  0
LTYPE
  5
69
330
5
100
AcDbSymbolTableRecord
100
AcDbLinetypeTableRecord
  2
ACAD_ISO06W100
 70
     0
  3
ISO long-dash triple-dot ____ ... ____ ... ____
 72
    65
 73
     8
 40
36.0
 49
24.0
 74
     0
 49
-3.0
 74
     0
 49
0.0
 74
     0
 49
-3.0
 74
     0
 49
0.0
 74
     0
 49
-3.0
 74
     0
 49
0.0
 74
     0
 49
-3.0
 74
     0
  0
LTYPE
  5
6A
330
5
100
AcDbSymbolTableRecord
100
AcDbLinetypeTableRecord
  2
ACAD_ISO07W100
 70
     0
  3
ISO dot . . . . . . . . . . . . . . . . . . . .
 72
    65
 73
     2
 40
3.0
 49
0.0
 74
     0
 49
-3.0
 74
     0
  0
LTYPE
  5
6B
330
5
100
AcDbSymbolTableRecord
100
AcDbLinetypeTableRecord
  2
ACAD_ISO08W100
 70
     0
  3
ISO long-dash short-dash ____ __ ____ __ ____ _
 72
    65
 73
     4
 40
36.0
 49
24.0
 74
     0
 49
-3.0
 74
     0
 49
6.0
 74
     0
 49
-3.0
 74
     0
  0
LTYPE
  5
6C
330
5
100
AcDbSymbolTableRecord
100
AcDbLinetypeTableRecord
  2
ACAD_ISO09W100
 70
     0
  3
ISO long-dash double-short-dash ____ __ __ ____
 72
    65
 73
     6
 40
45.0
 49
24.0
 74
     0
 49
-3.0
 74
     0
 49
6.0
 74
     0
 49
-3.0
 74
     0
 49
6.0
 74
     0
 49
-3.0
 74
     0
  0
LTYPE
  5
6D
330
5
100
AcDbSymbolTableRecord
100
AcDbLinetypeTableRecord
  2
ACAD_ISO10W100
 70
     0
  3
ISO dash dot __ . __ . __ . __ . __ . __ . __ .
 72
    65
 73
     4
 40
18.0
 49
12.0
 74
     0
 49
-3.0
 74
     0
 49
0.0
 74
     0
 49
-3.0
 74
     0
  0
LTYPE
  5
6E
330
5
100
AcDbSymbolTableRecord
100
AcDbLinetypeTableRecord
  2
ACAD_ISO11W100
 70
     0
  3
ISO double-dash dot __ __ . __ __ . __ __ . __ 
 72
    65
 73
     6
 40
33.0
 49
12.0
 74
     0
 49
-3.0
 74
     0
 49
12.0
 74
     0
 49
-3.0
 74
     0
 49
0.0
 74
     0
 49
-3.0
 74
     0
  0
LTYPE
  5
6F
330
5
100
AcDbSymbolTableRecord
100
AcDbLinetypeTableRecord
  2
ACAD_ISO12W100
 70
     0
  3
ISO dash double-dot __ . . __ . . __ . . __ . .
 72
    65
 73
     6
 40
21.0
 49
12.0
 74
     0
 49
-3.0
 74
     0
 49
0.0
 74
     0
 49
-3.0
 74
     0
 49
0.0
 74
     0
 49
-3.0
 74
     0
  0
LTYPE
  5
70
330
5
100
AcDbSymbolTableRecord
100
AcDbLinetypeTableRecord
  2
ACAD_ISO13W100
 70
     0
  3
ISO double-dash double-dot __ __ . . __ __ . . 
 72
    65
 73
     8
 40
36.0
 49
12.0
 74
     0
 49
-3.0
 74
     0
 49
12.0
 74
     0
 49
-3.0
 74
     0
 49
0.0
 74
     0
 49
-3.0
 74
     0
 49
0.0
 74
     0
 49
-3.0
 74
     0
  0
LTYPE
  5
71
330
5
100
AcDbSymbolTableRecord
100
AcDbLinetypeTableRecord
  2
ACAD_ISO14W100
 70
     0
  3
ISO dash triple-dot __ . . . __ . . . __ . . . 
 72
    65
 73
     8
 40
24.0
 49
12.0
 74
     0
 49
-3.0
 74
     0
 49
0.0
 74
     0
 49
-3.0
 74
     0
 49
0.0
 74
     0
 49
-3.0
 74
     0
 49
0.0
 74
     0
 49
-3.0
 74
     0
  0
LTYPE
  5
72
330
5
100
AcDbSymbolTableRecord
100
AcDbLinetypeTableRecord
  2
ACAD_ISO15W100
 70
     0
  3
ISO double-dash triple-dot __ __ . . . __ __ . 
 72
    65
 73
    10
 40
39.0
 49
12.0
 74
     0
 49
-3.0
 74
     0
 49
12.0
 74
     0
 49
-3.0
 74
     0
 49
0.0
 74
     0
 49
-3.0
 74
     0
 49
0.0
 74
     0
 49
-3.0
 74
     0
 49
0.0
 74
     0
 49
-3.0
 74
     0
  0
LTYPE
  5
75
330
5
100
AcDbSymbolTableRecord
100
AcDbLinetypeTableRecord
  2
FENCELINE1
 70
     0
  3
Fenceline circle ----0-----0----0-----0----0---
 72
    65
 73
     4
 40
36.83
 49
6.349999999999999
 74
     0
 49
-2.54
 74
     4
 75
   133
340
74
 46
2.54
 50
0.0
 44
-2.54
 45
0.0
 49
-2.54
 74
     0
 49
25.4
 74
     0
  0
LTYPE
  5
76
330
5
100
AcDbSymbolTableRecord
100
AcDbLinetypeTableRecord
  2
FENCELINE2
 70
     0
  3
Fenceline square ----[]-----[]----[]-----[]----
 72
    65
 73
     4
 40
36.83
 49
6.349999999999999
 74
     0
 49
-2.54
 74
     4
 75
   132
340
74
 46
2.54
 50
0.0
 44
-2.54
 45
0.0
 49
-2.54
 74
     0
 49
25.4
 74
     0
  0
LTYPE
  5
77
330
5
100
AcDbSymbolTableRecord
100
AcDbLinetypeTableRecord
  2
TRACKS
 70
     0
  3
Tracks -|-|-|-|-|-|-|-|-|-|-|-|-|-|-|-|-|-|-|-|
 72
    65
 73
     2
 40
7.62
 49
3.81
 74
     4
 75
   130
340
74
 46
6.349999999999999
 50
0.0
 44
0.0
 45
0.0
 49
3.81
 74
     0
  0
LTYPE
  5
78
330
5
100
AcDbSymbolTableRecord
100
AcDbLinetypeTableRecord
  2
BATTING
 70
     0
  3
Batting SSSSSSSSSSSSSSSSSSSSSSSSSSSSSSSSSSSSSSS
 72
    65
 73
     4
 40
10.16254
 49
0.00254
 74
     0
 49
-2.54
 74
     4
 75
   134
340
74
 46
2.54
 50
0.0
 44
-2.54
 45
0.0
 49
-5.08
 74
     4
 75
   134
340
74
 46
2.54
 50
180.0
 44
2.54
 45
0.0
 49
-2.54
 74
     0
  0
LTYPE
  5
79
330
5
100
AcDbSymbolTableRecord
100
AcDbLinetypeTableRecord
  2
HOT_WATER_SUPPLY
 70
     0
  3
Hot water supply ---- HW ---- HW ---- HW ----
 72
    65
 73
     3
 40
22.86
 49
12.7
 74
     0
 49
-5.08
 74
     2
 75
     0
340
26
 46
2.54
 50
0.0
 44
-2.54
 45
-1.27
  9
HW
 49
-5.08
 74
     0
  0
LTYPE
  5
7A
330
5
100
AcDbSymbolTableRecord
100
AcDbLinetypeTableRecord
  2
GAS_LINE
 70
     0
  3
Gas line ----GAS----GAS----GAS----GAS----GAS---
 72
    65
 73
     3
 40
24.13
 49
12.7
 74
     0
 49
-5.08
 74
     2
 75
     0
340
26
 46
2.54
 50
0.0
 44
-2.54
 45
-1.27
  9
GAS
 49
-6.349999999999999
 74
     0
  0
LTYPE
  5
7B
330
5
100
AcDbSymbolTableRecord
100
AcDbLinetypeTableRecord
  2
ZIGZAG
 70
     0
  3
Zig zag /\/\/\/\/\/\/\/\/\/\/\/\/\/\/\/\/\/\/\/
 72
    65
 73
     4
 40
20.32254
 49
0.00254
 74
     0
 49
-5.08
 74
     4
 75
   131
340
74
 46
5.08
 50
0.0
 44
-5.08
 45
0.0
 49
-10.16
 74
     4
 75
   131
340
74
 46
5.08
 50
180.0
 44
5.08
 45
0.0
 49
-5.08
 74
     0
  0
ENDTAB
  0
TABLE
  2
LAYER
  5
2
330
0
100
AcDbSymbolTable
 70
    74
  0
LAYER
  5
25
330
2
100
AcDbSymbolTableRecord
100
AcDbLayerTableRecord
  2
0
 70
     0
 62
     7
  6
Continuous
370
    -3
390
F
  0
LAYER
  5
90
330
2
100
AcDbSymbolTableRecord
100
AcDbLayerTableRecord
  2
Bemaßungen(TC_020513_DIN)
 70
     0
 62
     7
  6
Continuous
370
    25
390
F
  0
LAYER
  5
A2
330
2
100
AcDbSymbolTableRecord
100
AcDbLayerTableRecord
  2
Mittellinie(TC_020513_DIN)
 70
     0
 62
     7
  6
DASH_DOT
370
    25
390
F
  0
LAYER
  5
A4
330
2
100
AcDbSymbolTableRecord
100
AcDbLayerTableRecord
  2
Mittelpunktmarkierung(TC_020513_DIN)
 70
     0
 62
     7
  6
Continuous
370
    25
390
F
  0
LAYER
  5
AD
330
2
100
AcDbSymbolTableRecord
100
AcDbLayerTableRecord
  2
Schraffur
 70
     0
 62
   179
  6
Continuous
370
     9
390
F
  0
LAYER
  5
AF
330
2
100
AcDbSymbolTableRecord
100
AcDbLayerTableRecord
  2
Sichtbare Kanten(TC_020513_DIN)
 70
     0
 62
     7
  6
Continuous
370
    50
390
F
  0
LAYER
  5
B2
330
2
100
AcDbSymbolTableRecord
100
AcDbLayerTableRecord
  2
Skizziergeometrie(ISO)
 70
     0
 62
     7
  6
Continuous
370
    50
390
F
  0
LAYER
  5
B5
330
2
100
AcDbSymbolTableRecord
100
AcDbLayerTableRecord
  2
Skizzierlinie(TC_020513_DIN)
 70
     1
 62
     3
  6
Continuous
370
    18
390
F
  0
LAYER
  5
BA
330
2
100
AcDbSymbolTableRecord
100
AcDbLayerTableRecord
  2
Symbole(ISO)
 70
     0
 62
     7
  6
Continuous
370
    25
390
F
  0
LAYER
  5
BB
330
2
100
AcDbSymbolTableRecord
100
AcDbLayerTableRecord
  2
Symbole(TC_020513_DIN)
 70
     0
 62
     7
  6
Continuous
370
    35
390
F
  0
LAYER
  5
2FA
330
2
100
AcDbSymbolTableRecord
100
AcDbLayerTableRecord
  2
Defpoints
 70
     0
 62
     7
  6
Continuous
290
     0
370
    -3
390
F
  0
ENDTAB
  0
TABLE
  2
STYLE
  5
3
330
0
100
AcDbSymbolTable
 70
    17
  0
STYLE
  5
26
330
3
100
AcDbSymbolTableRecord
100
AcDbTextStyleTableRecord
  2
Standard
 70
     0
 40
0.0
 41
1.0
 50
0.0
 71
     0
 42
0.2
  3
ARIAL.TTF
  4

1001
ACAD
1000
Arial
1071
      256
  0
STYLE
  5
74
330
3
100
AcDbSymbolTableRecord
100
AcDbTextStyleTableRecord
  2

 70
     1
 40
0.0
 41
1.0
 50
0.0
 71
     0
 42
0.2
  3
ltypeshp.shx
  4

  0
STYLE
  5
C4
330
3
100
AcDbSymbolTableRecord
100
AcDbTextStyleTableRecord
  2
Aktuell-BSI
 70
     0
 40
0.0
 41
1.0
 50
0.0
 71
     0
 42
0.2
  3
ARIAL.TTF
  4

1001
ACAD
1000
Arial
1071
      256
  0
STYLE
  5
C5
330
3
100
AcDbSymbolTableRecord
100
AcDbTextStyleTableRecord
  2
Kopie von TC 5 mm
 70
     0
 40
0.0
 41
1.199999928474426
 50
0.0
 71
     0
 42
0.2
  3
ARIAL.TTF
  4

1001
ACAD
1000
Arial
1071
      256
  0
STYLE
  5
C6
330
3
100
AcDbSymbolTableRecord
100
AcDbTextStyleTableRecord
  2
STANDARD-TC_020513_DIN
 70
     0
 40
0.0
 41
1.0
 50
0.0
 71
     0
 42
0.2
  3
ARIAL.TTF
  4

1001
ACAD
1000
Arial
1071
      256
  0
STYLE
  5
C7
330
3
100
AcDbSymbolTableRecord
100
AcDbTextStyleTableRecord
  2
STANDARD-TC_020513_DINGroßer Text
 70
     0
 40
0.0
 41
1.0
 50
0.0
 71
     0
 42
0.2
  3
ARIAL.TTF
  4

1001
ACAD
1000
Arial
1071
      256
  0
STYLE
  5
C8
330
3
100
AcDbSymbolTableRecord
100
AcDbTextStyleTableRecord
  2
STANDARD-TC_020513_DINNach Layer
 70
     0
 40
0.0
 41
1.0
 50
0.0
 71
     0
 42
0.2
  3
ARIAL.TTF
  4

1001
ACAD
1000
Arial
1071
      256
  0
STYLE
  5
C9
330
3
100
AcDbSymbolTableRecord
100
AcDbTextStyleTableRecord
  2
TC 2_5 mm
 70
     0
 40
0.0
 41
0.899999976158142
 50
0.0
 71
     0
 42
0.2
  3
ARIAL.TTF
  4

1001
ACAD
1000
Arial
1071
      256
  0
STYLE
  5
CA
330
3
100
AcDbSymbolTableRecord
100
AcDbTextStyleTableRecord
  2
TC 3_5 mm
 70
     0
 40
0.0
 41
0.7999999523162842
 50
0.0
 71
     0
 42
0.2
  3
ARIAL.TTF
  4

1001
ACAD
1000
Arial
1071
      256
  0
STYLE
  5
CB
330
3
100
AcDbSymbolTableRecord
100
AcDbTextStyleTableRecord
  2
TC 3_5 mmGroßer Text
 70
     0
 40
0.0
 41
0.899999976158142
 50
0.0
 71
     0
 42
0.2
  3
ARIAL.TTF
  4

1001
ACAD
1000
Arial
1071
      256
  0
STYLE
  5
CC
330
3
100
AcDbSymbolTableRecord
100
AcDbTextStyleTableRecord
  2
TC 3_5 mmNach Layer
 70
     0
 40
0.0
 41
0.899999976158142
 50
0.0
 71
     0
 42
0.2
  3
ARIAL.TTF
  4

1001
ACAD
1000
Arial
1071
      256
  0
STYLE
  5
CD
330
3
100
AcDbSymbolTableRecord
100
AcDbTextStyleTableRecord
  2
TC 4 mm
 70
     0
 40
0.0
 41
1.199999928474426
 50
0.0
 71
     0
 42
0.2
  3
ARIAL.TTF
  4

1001
ACAD
1000
Arial
1071
      256
  0
STYLE
  5
CE
330
3
100
AcDbSymbolTableRecord
100
AcDbTextStyleTableRecord
  2
TC 5 mm
 70
     0
 40
0.0
 41
0.899999976158142
 50
0.0
 71
     0
 42
0.2
  3
ARIAL.TTF
  4

1001
ACAD
1000
Arial
1071
      256
  0
STYLE
  5
CF
330
3
100
AcDbSymbolTableRecord
100
AcDbTextStyleTableRecord
  2
TC 5 mmNach Layer
 70
     0
 40
0.0
 41
0.899999976158142
 50
0.0
 71
     0
 42
0.2
  3
ARIAL.TTF
  4

1001
ACAD
1000
Arial
1071
      256
  0
STYLE
  5
D0
330
3
100
AcDbSymbolTableRecord
100
AcDbTextStyleTableRecord
  2
TC 7 mm
 70
     0
 40
0.0
 41
0.899999976158142
 50
0.0
 71
     0
 42
0.2
  3
ARIAL.TTF
  4

1001
ACAD
1000
Arial
1071
      256
  0
STYLE
  5
F9
330
3
100
AcDbSymbolTableRecord
100
AcDbTextStyleTableRecord
  2
TC 2_5 mm-ISOCPEUR
 70
     0
 40
0.0
 41
0.899999976158142
 50
0.0
 71
     0
 42
0.2
  3
isocpeur.ttf
  4

1001
ACAD
1000
ISOCPEUR
1071
      256
  0
STYLE
  5
FD
330
3
100
AcDbSymbolTableRecord
100
AcDbTextStyleTableRecord
  2
TC 3_5 mm-ISOCPEUR
 70
     0
 40
0.0
 41
0.899999976158142
 50
0.0
 71
     0
 42
0.2
  3
isocpeur.ttf
  4

1001
ACAD
1000
ISOCPEUR
1071
      256
  0
ENDTAB
  0
TABLE
  2
VIEW
  5
6
330
0
100
AcDbSymbolTable
 70
     0
  0
ENDTAB
  0
TABLE
  2
UCS
  5
7
330
0
100
AcDbSymbolTable
 70
     0
  0
ENDTAB
  0
TABLE
  2
APPID
  5
9
330
0
100
AcDbSymbolTable
 70
     1
  0
APPID
  5
27
330
9
100
AcDbSymbolTableRecord
100
AcDbRegAppTableRecord
  2
ACAD
 70
     0
  0
ENDTAB
  0
TABLE
  2
DIMSTYLE
  5
A
330
0
100
AcDbSymbolTable
 70
    17
100
AcDbDimStyleTable
 71
     2
340
D1
340
3F
  0
DIMSTYLE
105
3F
330
A
100
AcDbSymbolTableRecord
100
AcDbDimStyleTableRecord
  2
Standard
 70
     0
340
26
  0
DIMSTYLE
105
D1
102
{ACAD_REACTORS
330
2F9
330
3CB
330
490
330
556
330
61B
330
6E0
330
7A5
330
884
102
}
330
A
100
AcDbSymbolTableRecord
100
AcDbDimStyleTableRecord
  2
STANDARD-TC_020513_DIN
 70
     0
 40
2.0
 41
2.5
 42
1.0
 43
6.0
 44
2.0
 45
0.00000001
 46
10.0
 73
     0
 74
     0
 77
     1
 78
    12
 79
     3
140
3.5
143
0.03937
147
0.8
171
     3
172
     1
176
     7
177
     7
178
     7
271
     2
272
     2
274
     3
278
    44
340
C4
371
    25
372
    25
  0
DIMSTYLE
105
D2
330
A
100
AcDbSymbolTableRecord
100
AcDbDimStyleTableRecord
  2
STANDARD-TC_020513_DIN$7
 70
     0
 40
2.0
 41
2.5
 42
1.0
 43
6.0
 44
2.0
 45
0.00000001
 46
10.0
 73
     0
 74
     0
 77
     1
 78
    12
 79
     3
140
3.5
143
0.03937
147
0.8
171
     3
172
     1
176
     7
177
     7
178
     7
271
     2
272
     2
274
     3
278
    44
340
C4
371
    25
372
    25
  0
DIMSTYLE
105
D3
330
A
100
AcDbSymbolTableRecord
100
AcDbDimStyleTableRecord
  2
STANDARD-TC_020513_DINGroßer Text
 70
     0
 40
2.0
 41
5.0
 42
0.0
 43
6.0
 44
3.174999999999999
 45
0.00000001
 46
10.0
 73
     0
 74
     0
 77
     1
140
5.25
143
0.03937
146
0.6666666666666666
147
0.8
171
     3
172
     1
176
     7
177
     7
178
     7
271
     2
272
     2
274
     3
278
    44
340
C7
371
    25
372
    25
  0
DIMSTYLE
105
D4
330
A
100
AcDbSymbolTableRecord
100
AcDbDimStyleTableRecord
  2
STANDARD-TC_020513_DINGroßer Text$7
 70
     0
 40
2.0
 41
5.0
 42
0.0
 43
6.0
 44
3.174999999999999
 45
0.00000001
 46
10.0
 73
     0
 74
     0
 77
     1
140
5.25
143
0.03937
146
0.6666666666666666
147
0.8
171
     3
172
     1
176
     7
177
     7
178
     7
271
     2
272
     2
274
     3
278
    44
340
C7
371
    25
372
    25
  0
DIMSTYLE
105
D5
330
A
100
AcDbSymbolTableRecord
100
AcDbDimStyleTableRecord
  2
Teccon Kiel Stil
 70
     0
 40
2.0
 41
2.5
 42
0.0
 43
7.0
 44
2.0
 45
0.00000001
 46
10.0
 73
     0
 74
     0
 77
     1
 78
    12
 79
     3
140
3.5
143
0.03937
147
1.0
171
     3
172
     1
176
     7
177
     7
178
     7
179
     1
271
     1
272
     2
274
     3
278
    44
340
CA
371
    25
372
    25
  0
DIMSTYLE
105
D6
330
A
100
AcDbSymbolTableRecord
100
AcDbDimStyleTableRecord
  2
Teccon Kiel Stil$7
 70
     0
 40
2.0
 41
2.5
 42
0.0
 43
7.0
 44
2.0
 45
0.00000001
 46
10.0
 73
     0
 74
     0
 77
     1
 78
    12
 79
     3
140
3.5
143
0.03937
147
1.0
171
     3
172
     1
176
     7
177
     7
178
     7
179
     1
271
     1
272
     2
274
     3
278
    44
340
CA
371
    25
372
    25
  0
DIMSTYLE
105
D7
330
A
100
AcDbSymbolTableRecord
100
AcDbDimStyleTableRecord
  2
Teccon Kiel StilGroßer Text
 70
     0
 40
2.0
 41
5.0
 42
0.0
 43
7.0
 44
2.0
 45
0.00000001
 46
10.0
 73
     0
 74
     0
 77
     1
 78
    12
 79
     3
140
5.25
143
0.03937
146
0.6666666666666666
147
1.0
171
     3
172
     1
176
     7
177
     7
178
     7
179
     1
271
     1
272
     2
274
     3
278
    44
340
CB
371
    25
372
    25
  0
DIMSTYLE
105
D8
330
A
100
AcDbSymbolTableRecord
100
AcDbDimStyleTableRecord
  2
Teccon Kiel StilGroßer Text$7
 70
     0
 40
2.0
 41
5.0
 42
0.0
 43
7.0
 44
2.0
 45
0.00000001
 46
10.0
 73
     0
 74
     0
 77
     1
 78
    12
 79
     3
140
5.25
143
0.03937
146
0.6666666666666666
147
1.0
171
     3
172
     1
176
     7
177
     7
178
     7
179
     1
271
     1
272
     2
274
     3
278
    44
340
CB
371
    25
372
    25
  0
DIMSTYLE
105
D9
330
A
100
AcDbSymbolTableRecord
100
AcDbDimStyleTableRecord
  2
Führungslinie-Ursprungsindikator(ISO)
 70
     0
 40
2.0
 41
2.5
340
26
342
DA
  0
DIMSTYLE
105
E1
330
A
100
AcDbSymbolTableRecord
100
AcDbDimStyleTableRecord
  2
Führungslinie-Ursprungsindikator(TC_020513_DIN)
 70
     0
 40
2.0
 41
2.5
340
26
342
DA
  0
DIMSTYLE
105
EC
330
A
100
AcDbSymbolTableRecord
100
AcDbDimStyleTableRecord
  2
Führungslinie - Bezugsstelle(ISO)
 70
     0
 40
2.0
 41
2.5
340
26
342
DA
  0
DIMSTYLE
105
ED
330
A
100
AcDbSymbolTableRecord
100
AcDbDimStyleTableRecord
  2
Führungslinie - Bezugsstelle(TC_020513_DIN)
 70
     0
 40
2.0
 41
2.5
340
26
342
DA
  0
DIMSTYLE
105
EE
330
A
100
AcDbSymbolTableRecord
100
AcDbDimStyleTableRecord
  2
Führungslinie - Punkt(ISO)
 70
     0
 40
2.0
 41
2.5
340
26
342
DA
  0
DIMSTYLE
105
EF
330
A
100
AcDbSymbolTableRecord
100
AcDbDimStyleTableRecord
  2
Führungslinie - Punkt(TC_020513_DIN)
 70
     0
 40
2.0
 41
2.5
340
26
342
DA
  0
DIMSTYLE
105
F0
330
A
100
AcDbSymbolTableRecord
100
AcDbDimStyleTableRecord
  2
Führungslinie(ISO)
 70
     0
 40
2.0
 41
2.5
340
26
342
DA
  0
DIMSTYLE
105
F1
330
A
100
AcDbSymbolTableRecord
100
AcDbDimStyleTableRecord
  2
Führungslinie(TC_020513_DIN)
 70
     0
 40
2.0
 41
2.5
340
26
342
DA
  0
ENDTAB
  0
TABLE
  2
BLOCK_RECORD
  5
1
330
0
100
AcDbSymbolTable
 70
    19
  0
BLOCK_RECORD
  5
37
330
1
100
AcDbSymbolTableRecord
100
AcDbBlockTableRecord
  2
*Model_Space
340
3A
  0
BLOCK_RECORD
  5
33
330
1
100
AcDbSymbolTableRecord
100
AcDbBlockTableRecord
  2
*Paper_Space
340
36
  0
BLOCK_RECORD
  5
3B
330
1
100
AcDbSymbolTableRecord
100
AcDbBlockTableRecord
  2
*Paper_Space0
340
3E
  0
BLOCK_RECORD
  5
DA
330
1
100
AcDbSymbolTableRecord
100
AcDbBlockTableRecord
  2
_Closed
340
0
  0
BLOCK_RECORD
  5
E2
330
1
100
AcDbSymbolTableRecord
100
AcDbBlockTableRecord
  2
DatumFilled45
340
0
  0
BLOCK_RECORD
  5
F2
330
1
100
AcDbSymbolTableRecord
100
AcDbBlockTableRecord
  2
DIN 6930 (Toleranzklasse)
340
0
  0
BLOCK_RECORD
  5
103
330
1
100
AcDbSymbolTableRecord
100
AcDbBlockTableRecord
  2
nicht bemaßte Radien
340
0
  0
BLOCK_RECORD
  5
10C
330
1
100
AcDbSymbolTableRecord
100
AcDbBlockTableRecord
  2
DIN ISO 13715 (Werkstückkanten)
340
0
  0
BLOCK_RECORD
  5
130
330
1
100
AcDbSymbolTableRecord
100
AcDbBlockTableRecord
  2
EN 12329 (Chromatierung)
340
0
  0
BLOCK_RECORD
  5
138
330
1
100
AcDbSymbolTableRecord
100
AcDbBlockTableRecord
  2
ISO 2768 (zul. Abweichung)
340
0
  0
BLOCK_RECORD
  5
141
330
1
100
AcDbSymbolTableRecord
100
AcDbBlockTableRecord
  2
DIN ISO 1302 (Oberflächen)
340
0
  0
BLOCK_RECORD
  5
149
330
1
100
AcDbSymbolTableRecord
100
AcDbBlockTableRecord
  2
Ränder Ilme Rahmen A4 quer
340
0
102
{BLKREFS
331
153
102
}
  0
BLOCK_RECORD
  5
154
330
1
100
AcDbSymbolTableRecord
100
AcDbBlockTableRecord
  2
Schriftfelder Ilme
340
0
102
{BLKREFS
331
1C7
102
}
  0
BLOCK_RECORD
  5
2FB
330
1
100
AcDbSymbolTableRecord
100
AcDbBlockTableRecord
  2
*D11
340
0
  0
BLOCK_RECORD
  5
3CC
330
1
100
AcDbSymbolTableRecord
100
AcDbBlockTableRecord
  2
*D12
340
0
  0
BLOCK_RECORD
  5
491
330
1
100
AcDbSymbolTableRecord
100
AcDbBlockTableRecord
  2
*D13
340
0
  0
BLOCK_RECORD
  5
557
330
1
100
AcDbSymbolTableRecord
100
AcDbBlockTableRecord
  2
*D14
340
0
  0
BLOCK_RECORD
  5
61C
330
1
100
AcDbSymbolTableRecord
100
AcDbBlockTableRecord
  2
*D15
340
0
  0
BLOCK_RECORD
  5
6E1
330
1
100
AcDbSymbolTableRecord
100
AcDbBlockTableRecord
  2
*D16
340
0
  0
BLOCK_RECORD
  5
7A6
330
1
100
AcDbSymbolTableRecord
100
AcDbBlockTableRecord
  2
*D17
340
0
  0
BLOCK_RECORD
  5
885
330
1
100
AcDbSymbolTableRecord
100
AcDbBlockTableRecord
  2
*D18
340
0
  0
ENDTAB
  0
ENDSEC
  0
SECTION
  2
BLOCKS
  0
BLOCK
  5
38
330
37
100
AcDbEntity
  8
0
100
AcDbBlockBegin
  2
*Model_Space
 70
     0
 10
0.0
 20
0.0
 30
0.0
  3
*Model_Space
  1

  0
ENDBLK
  5
39
330
37
100
AcDbEntity
  8
0
100
AcDbBlockEnd
  0
BLOCK
  5
34
330
33
100
AcDbEntity
 67
     1
  8
0
100
AcDbBlockBegin
  2
*Paper_Space
 70
     0
 10
0.0
 20
0.0
 30
0.0
  3
*Paper_Space
  1

  0
ENDBLK
  5
35
330
33
100
AcDbEntity
 67
     1
  8
0
100
AcDbBlockEnd
  0
BLOCK
  5
3C
330
3B
100
AcDbEntity
 67
     1
  8
0
100
AcDbBlockBegin
  2
*Paper_Space0
 70
     0
 10
0.0
 20
0.0
 30
0.0
  3
*Paper_Space0
  1

  0
ENDBLK
  5
3D
330
3B
100
AcDbEntity
 67
     1
  8
0
100
AcDbBlockEnd
  0
BLOCK
  5
DF
330
DA
100
AcDbEntity
  8
0
100
AcDbBlockBegin
  2
_Closed
 70
     0
 10
0.0
 20
0.0
 30
0.0
  3
_Closed
  1

  0
LINE
  5
DB
330
DA
100
AcDbEntity
  8
0
  6
ByBlock
 62
     0
370
    -2
100
AcDbLine
 10
-1.0
 20
0.1666666666666666
 30
0.0
 11
0.0
 21
0.0
 31
0.0
  0
LINE
  5
DC
330
DA
100
AcDbEntity
  8
0
  6
ByBlock
 62
     0
370
    -2
100
AcDbLine
 10
0.0
 20
0.0
 30
0.0
 11
-1.0
 21
-0.1666666666666666
 31
0.0
  0
LINE
  5
DD
330
DA
100
AcDbEntity
  8
0
  6
ByBlock
 62
     0
370
    -2
100
AcDbLine
 10
-1.0
 20
0.1666666666666666
 30
0.0
 11
-1.0
 21
-0.1666666666666666
 31
0.0
  0
LINE
  5
DE
330
DA
100
AcDbEntity
  8
0
  6
ByBlock
 62
     0
370
    -2
100
AcDbLine
 10
0.0
 20
0.0
 30
0.0
 11
-1.0
 21
0.0
 31
0.0
  0
ENDBLK
  5
E0
330
DA
100
AcDbEntity
  8
0
100
AcDbBlockEnd
  0
BLOCK
  5
E3
330
E2
100
AcDbEntity
  8
0
100
AcDbBlockBegin
  2
DatumFilled45
 70
     0
 10
0.0
 20
0.0
 30
0.0
  3
DatumFilled45
  1

  0
POLYLINE
  5
E5
330
E2
100
AcDbEntity
  8
0
 62
     0
100
AcDb2dPolyline
 66
     1
 10
0.0
 20
0.0
 30
0.0
 70
   128
  0
VERTEX
  5
E6
330
E5
100
AcDbEntity
  8
0
 62
     0
100
AcDbVertex
100
AcDb2dVertex
 10
0.0
 20
1.0
 30
0.0
  0
VERTEX
  5
E7
330
E5
100
AcDbEntity
  8
0
 62
     0
100
AcDbVertex
100
AcDb2dVertex
 10
0.0
 20
-1.0
 30
0.0
  0
VERTEX
  5
E9
330
E5
100
AcDbEntity
  8
0
 62
     0
100
AcDbVertex
100
AcDb2dVertex
 10
-1.0
 20
0.0
 30
0.0
  0
VERTEX
  5
EA
330
E5
100
AcDbEntity
  8
0
 62
     0
100
AcDbVertex
100
AcDb2dVertex
 10
0.0
 20
1.0
 30
0.0
  0
SEQEND
  5
E8
330
E5
100
AcDbEntity
  8
0
 62
     0
  0
SOLID
  5
EB
330
E2
100
AcDbEntity
  8
0
 62
     0
100
AcDbTrace
 10
0.0
 20
1.0
 30
0.0
 11
0.0
 21
-1.0
 31
0.0
 12
-1.0
 22
0.0
 32
0.0
 13
0.0
 23
1.0
 33
0.0
  0
ENDBLK
  5
E4
330
E2
100
AcDbEntity
  8
0
100
AcDbBlockEnd
  0
BLOCK
  5
F3
330
F2
100
AcDbEntity
  8
0
100
AcDbBlockBegin
  2
DIN 6930 (Toleranzklasse)
 70
     2
 10
0.0
 20
0.0
 30
0.0
  3
DIN 6930 (Toleranzklasse)
  1

  0
LINE
  5
F5
330
F2
100
AcDbEntity
  8
Skizziergeometrie(ISO)
100
AcDbLine
 10
-49.99999999999999
 20
24.99999999999996
 30
0.0
 11
0.0
 21
24.99999999999996
 31
0.0
  0
LINE
  5
F6
330
F2
100
AcDbEntity
  8
Skizziergeometrie(ISO)
100
AcDbLine
 10
0.0
 20
24.99999999999996
 30
0.0
 11
0.0
 21
0.0
 31
0.0
  0
LINE
  5
F7
330
F2
100
AcDbEntity
  8
Skizziergeometrie(ISO)
100
AcDbLine
 10
0.0
 20
0.0
 30
0.0
 11
-49.99999999999999
 21
0.0
 31
0.0
  0
LINE
  5
F8
330
F2
100
AcDbEntity
  8
Skizziergeometrie(ISO)
100
AcDbLine
 10
-49.99999999999999
 20
0.0
 30
0.0
 11
-49.99999999999999
 21
24.99999999999996
 31
0.0
  0
MTEXT
  5
FA
102
{ACAD_XDICTIONARY
360
960
102
}
330
F2
100
AcDbEntity
  8
Symbole(ISO)
 62
     7
100
AcDbMText
 10
-25.01617139266887
 20
22.49496284479633
 30
0.0
 40
2.5
 41
49.93534911063455
 71
     5
 72
     1
  1
F\U+00FCr spanlose Bearbeitung
  7
TC 2_5 mm-ISOCPEUR
 73
     1
 44
1.0
1001
ACAD
1000
MTEXTBEGIN
1070
    73
1070
     1
1070
    44
1040
1.0
1070
    74
1070
     0
1000
MTEXTEND
  0
MTEXT
  5
FC
330
F2
100
AcDbEntity
  8
Symbole(ISO)
 62
     7
100
AcDbMText
 10
-24.96550299476308
 20
17.97814514565743
 30
0.0
 40
2.5
 41
49.94698265738096
 71
     5
 72
     1
  1
Allgemeintoleranz
  7
TC 2_5 mm-ISOCPEUR
 73
     1
 44
1.0
1001
ACAD
1000
MTEXTBEGIN
1070
    73
1070
     1
1070
    44
1040
1.0
1070
    74
1070
     0
1000
MTEXTEND
  0
MTEXT
  5
FE
330
F2
100
AcDbEntity
  8
Symbole(ISO)
 62
     7
100
AcDbMText
 10
-22.00032990803074
 20
12.97814514565747
 30
0.0
 40
3.499999940395355
 41
28.04641142085023
 71
     6
 72
     1
  1
DIN 6930-
  7
TC 3_5 mm-ISOCPEUR
 73
     1
 44
1.0
1001
ACAD
1000
MTEXTBEGIN
1070
    73
1070
     1
1070
    44
1040
1.0
1070
    74
1070
     0
1000
MTEXTEND
  0
MTEXT
  5
FF
330
F2
100
AcDbEntity
  8
Symbole(ISO)
 62
     7
100
AcDbMText
 10
-24.98510412015335
 20
5.018941170990345
 30
0.0
 40
2.5
 41
50.05946813167525
 71
     5
 72
     1
  1
(zul. Abweichung der\PWinkelstellung DIN 6935)
  7
TC 2_5 mm-ISOCPEUR
 73
     2
 44
1.068348169326782
1001
ACAD
1000
MTEXTBEGIN
1070
    73
1070
     2
1070
    44
1040
1.068348169326782
1070
    74
1070
     0
1000
MTEXTEND
  0
ATTDEF
  5
100
330
F2
100
AcDbEntity
  8
Symbole(ISO)
 62
     7
100
AcDbText
 10
-21.93383492465724
 20
11.2184168455105
 30
0.0
 40
3.499999940395355
  1
 
 41
0.899999976158142
  7
TC 3_5 mm-ISOCPEUR
 11
-21.93383492465724
 21
12.96841681570818
 31
0.0
100
AcDbAttributeDefinition
  3
Toleranzklasse
  2
Toleranzklasse
 70
     0
 74
     2
  0
ENDBLK
  5
F4
330
F2
100
AcDbEntity
  8
0
100
AcDbBlockEnd
  0
BLOCK
  5
104
330
103
100
AcDbEntity
  8
0
100
AcDbBlockBegin
  2
nicht bemaßte Radien
 70
     2
 10
0.0
 20
0.0
 30
0.0
  3
nicht bemaßte Radien
  1

  0
LINE
  5
106
330
103
100
AcDbEntity
  8
Skizziergeometrie(ISO)
100
AcDbLine
 10
0.0
 20
0.0
 30
0.0
 11
-50.0
 21
0.0
 31
0.0
  0
LINE
  5
107
330
103
100
AcDbEntity
  8
Skizziergeometrie(ISO)
100
AcDbLine
 10
-50.0
 20
0.0
 30
0.0
 11
-50.0
 21
5.0
 31
0.0
  0
LINE
  5
108
330
103
100
AcDbEntity
  8
Skizziergeometrie(ISO)
100
AcDbLine
 10
-50.0
 20
5.0
 30
0.0
 11
0.0
 21
5.0
 31
0.0
  0
LINE
  5
109
330
103
100
AcDbEntity
  8
Skizziergeometrie(ISO)
100
AcDbLine
 10
0.0
 20
5.0
 30
0.0
 11
0.0
 21
0.0
 31
0.0
  0
MTEXT
  5
10A
102
{ACAD_XDICTIONARY
360
962
102
}
330
103
100
AcDbEntity
  8
Symbole(ISO)
 62
     7
100
AcDbMText
 10
-28.98102517277721
 20
2.530616500783118
 30
0.0
 40
2.5
 41
41.95492584233122
 71
     5
 72
     1
  1
Alle nicht bema\U+00DFten Radien R
  7
TC 2_5 mm-ISOCPEUR
 73
     1
 44
1.0
1001
ACAD
1000
MTEXTBEGIN
1070
    73
1070
     1
1070
    44
1040
1.0
1070
    74
1070
     0
1000
MTEXTEND
  0
ATTDEF
  5
10B
330
103
100
AcDbEntity
  8
Symbole(ISO)
 62
     7
100
AcDbText
 10
-4.624331584212832
 20
1.293984431277515
 30
0.0
 40
2.5
  1
 
 41
0.899999976158142
  7
TC 2_5 mm-ISOCPEUR
 72
     1
 11
-3.949331602094225
 21
2.543984431277515
 31
0.0
100
AcDbAttributeDefinition
  3
Radius
  2
Radius
 70
     0
 74
     2
  0
ENDBLK
  5
105
330
103
100
AcDbEntity
  8
0
100
AcDbBlockEnd
  0
BLOCK
  5
10D
330
10C
100
AcDbEntity
  8
0
100
AcDbBlockBegin
  2
DIN ISO 13715 (Werkstückkanten)
 70
     2
 10
0.0
 20
0.0
 30
0.0
  3
DIN ISO 13715 (Werkstückkanten)
  1

  0
LINE
  5
10F
102
{ACAD_REACTORS
330
112
102
}
330
10C
100
AcDbEntity
  8
0
100
AcDbLine
 10
-35.0
 20
20.0
 30
0.0
 11
-32.75944236602587
 21
21.71924034067061
 31
0.0
  0
LINE
  5
110
102
{ACAD_REACTORS
330
112
102
}
330
10C
100
AcDbEntity
  8
0
100
AcDbLine
 10
-33.28075965932943
 20
22.24055763397416
 30
0.0
 11
-35.0
 21
20.0
 31
0.0
  0
LINE
  5
111
102
{ACAD_REACTORS
330
112
102
}
330
10C
100
AcDbEntity
  8
0
100
AcDbLine
 10
-32.75944236602587
 20
21.71924034067061
 30
0.0
 11
-33.28075965932943
 21
22.24055763397416
 31
0.0
  0
HATCH
  5
112
330
10C
100
AcDbEntity
  8
Schraffur
 62
     7
100
AcDbHatch
 10
0.0
 20
0.0
 30
0.0
210
0.0
220
0.0
230
1.0
  2
SOLID
 70
     1
 71
     1
 91
        1
 92
        1
 93
        3
 72
     1
 10
-35.0
 20
20.0
 11
-32.75944236602587
 21
21.71924034067061
 72
     1
 10
-32.75944236602587
 20
21.71924034067061
 11
-33.28075965932943
 21
22.24055763397416
 72
     1
 10
-33.28075965932943
 20
22.24055763397416
 11
-35.0
 21
20.0
 97
        3
330
10F
330
111
330
110
 75
     0
 76
     1
 98
        1
 10
0.0
 20
0.0
  0
LINE
  5
113
102
{ACAD_REACTORS
330
116
102
}
330
10C
100
AcDbEntity
  8
0
100
AcDbLine
 10
-20.00000000000003
 20
20.00000000000003
 30
0.0
 11
-17.7594423660259
 21
21.71924034067057
 31
0.0
  0
LINE
  5
114
102
{ACAD_REACTORS
330
116
102
}
330
10C
100
AcDbEntity
  8
0
100
AcDbLine
 10
-18.28075965932939
 20
22.24055763397406
 30
0.0
 11
-20.00000000000003
 21
20.00000000000003
 31
0.0
  0
LINE
  5
115
102
{ACAD_REACTORS
330
116
102
}
330
10C
100
AcDbEntity
  8
0
100
AcDbLine
 10
-17.7594423660259
 20
21.71924034067057
 30
0.0
 11
-18.28075965932939
 21
22.24055763397406
 31
0.0
  0
HATCH
  5
116
330
10C
100
AcDbEntity
  8
Schraffur
 62
     7
100
AcDbHatch
 10
0.0
 20
0.0
 30
0.0
210
0.0
220
0.0
230
1.0
  2
SOLID
 70
     1
 71
     1
 91
        1
 92
        1
 93
        3
 72
     1
 10
-20.00000000000003
 20
20.00000000000003
 11
-17.7594423660259
 21
21.71924034067057
 72
     1
 10
-17.7594423660259
 20
21.71924034067057
 11
-18.28075965932939
 21
22.24055763397406
 72
     1
 10
-18.28075965932939
 20
22.24055763397406
 11
-20.00000000000003
 21
20.00000000000003
 97
        3
330
113
330
115
330
114
 75
     0
 76
     1
 98
        1
 10
0.0
 20
0.0
  0
LINE
  5
117
330
10C
100
AcDbEntity
  8
Skizziergeometrie(ISO)
100
AcDbLine
 10
-39.89999999999998
 20
20.0
 30
0.0
 11
-35.0
 21
20.0
 31
0.0
  0
LINE
  5
118
330
10C
100
AcDbEntity
  8
Skizziergeometrie(ISO)
100
AcDbLine
 10
-35.0
 20
20.0
 30
0.0
 11
-34.99999999999996
 21
15.09999999999998
 31
0.0
  0
LINE
  5
119
330
10C
100
AcDbEntity
  8
Skizziergeometrie(ISO)
100
AcDbLine
 10
-20.00000000000003
 20
20.00000000000003
 30
0.0
 11
-15.10000000000005
 21
20.00000000000003
 31
0.0
  0
LINE
  5
11A
330
10C
100
AcDbEntity
  8
Skizziergeometrie(ISO)
100
AcDbLine
 10
-20.00000000000003
 20
20.00000000000003
 30
0.0
 11
-20.00000000000003
 21
24.90000000000002
 31
0.0
  0
LINE
  5
11B
330
10C
100
AcDbEntity
  8
Skizziergeometrie(ISO)
100
AcDbLine
 10
-35.0
 20
20.0
 30
0.0
 11
-31.28768939877062
 21
23.71231060122938
 31
0.0
  0
LINE
  5
11C
330
10C
100
AcDbEntity
  8
Skizziergeometrie(ISO)
100
AcDbLine
 10
-31.28768939877062
 20
23.71231060122938
 30
0.0
 11
-26.3876893987706
 21
23.71231060122938
 31
0.0
  0
LINE
  5
11D
330
10C
100
AcDbEntity
  8
Skizziergeometrie(ISO)
100
AcDbLine
 10
-35.0
 20
20.0
 30
0.0
 11
-33.28075965932943
 21
22.24055763397416
 31
0.0
  0
LINE
  5
11E
330
10C
100
AcDbEntity
  8
Skizziergeometrie(ISO)
100
AcDbLine
 10
-33.28075965932943
 20
22.24055763397416
 30
0.0
 11
-32.75944236602587
 21
21.71924034067061
 31
0.0
  0
LINE
  5
11F
330
10C
100
AcDbEntity
  8
Skizziergeometrie(ISO)
100
AcDbLine
 10
-32.75944236602587
 20
21.71924034067061
 30
0.0
 11
-35.0
 21
20.0
 31
0.0
  0
LINE
  5
120
330
10C
100
AcDbEntity
  8
Skizziergeometrie(ISO)
100
AcDbLine
 10
-31.28768939877062
 20
23.71231060122938
 30
0.0
 11
-31.28768939877062
 21
28.61231060122936
 31
0.0
  0
LINE
  5
121
330
10C
100
AcDbEntity
  8
Skizziergeometrie(ISO)
100
AcDbLine
 10
-18.02010101267761
 20
21.97989898732235
 30
0.0
 11
-16.28768939877059
 21
23.71231060122938
 31
0.0
  0
LINE
  5
122
330
10C
100
AcDbEntity
  8
Skizziergeometrie(ISO)
100
AcDbLine
 10
-16.28768939877059
 20
23.71231060122938
 30
0.0
 11
-11.3876893987706
 21
23.71231060122938
 31
0.0
  0
LINE
  5
123
330
10C
100
AcDbEntity
  8
Skizziergeometrie(ISO)
100
AcDbLine
 10
-20.00000000000003
 20
20.00000000000003
 30
0.0
 11
-18.28075965932939
 21
22.24055763397406
 31
0.0
  0
LINE
  5
124
330
10C
100
AcDbEntity
  8
Skizziergeometrie(ISO)
100
AcDbLine
 10
-18.28075965932939
 20
22.24055763397406
 30
0.0
 11
-17.7594423660259
 21
21.71924034067057
 31
0.0
  0
LINE
  5
125
330
10C
100
AcDbEntity
  8
Skizziergeometrie(ISO)
100
AcDbLine
 10
-17.7594423660259
 20
21.71924034067057
 30
0.0
 11
-20.00000000000003
 21
20.00000000000003
 31
0.0
  0
LINE
  5
126
330
10C
100
AcDbEntity
  8
Skizziergeometrie(ISO)
100
AcDbLine
 10
-16.28768939877059
 20
23.71231060122938
 30
0.0
 11
-16.28768939877059
 21
28.61231060122936
 31
0.0
  0
LINE
  5
127
330
10C
100
AcDbEntity
  8
Skizziergeometrie(ISO)
100
AcDbLine
 10
-49.99999999999999
 20
35.0
 30
0.0
 11
0.0
 21
35.0
 31
0.0
  0
LINE
  5
128
330
10C
100
AcDbEntity
  8
Skizziergeometrie(ISO)
100
AcDbLine
 10
0.0
 20
35.0
 30
0.0
 11
0.0
 21
0.0
 31
0.0
  0
LINE
  5
129
330
10C
100
AcDbEntity
  8
Skizziergeometrie(ISO)
100
AcDbLine
 10
0.0
 20
0.0
 30
0.0
 11
-49.99999999999999
 21
0.0
 31
0.0
  0
LINE
  5
12A
330
10C
100
AcDbEntity
  8
Skizziergeometrie(ISO)
100
AcDbLine
 10
-49.99999999999999
 20
0.0
 30
0.0
 11
-49.99999999999999
 21
35.0
 31
0.0
  0
MTEXT
  5
12B
102
{ACAD_XDICTIONARY
360
964
102
}
330
10C
100
AcDbEntity
  8
Symbole(ISO)
 62
     7
100
AcDbMText
 10
-24.97893135154584
 20
10.23779293592927
 30
0.0
 40
3.499999940395355
 41
49.9873458157533
 71
     5
 72
     1
  1
Werkst\U+00FCckkanten\Pnach ISO 13715
  7
TC 3_5 mm-ISOCPEUR
 73
     2
 44
1.068348169326782
1001
ACAD
1000
MTEXTBEGIN
1070
    73
1070
     2
1070
    44
1040
1.068348169326782
1070
    74
1070
     0
1000
MTEXTEND
  0
ATTDEF
  5
12C
330
10C
100
AcDbEntity
  8
Symbole(ISO)
 62
     7
100
AcDbText
 10
-30.16177492853139
 20
24.5808246293851
 30
0.0
 40
2.5
  1
 
 41
0.899999976158142
  7
TC 2_5 mm-ISOCPEUR
 11
-30.16177492853139
 21
25.8308246293851
 31
0.0
100
AcDbAttributeDefinition
  3
AK unten
  2
AK_unten
 70
     0
 74
     2
  0
ATTDEF
  5
12D
330
10C
100
AcDbEntity
  8
Symbole(ISO)
 62
     7
100
AcDbText
 10
-30.17792390794348
 20
27.58528770975683
 30
0.0
 40
2.5
  1
 
 41
0.899999976158142
  7
TC 2_5 mm-ISOCPEUR
 11
-30.17792390794348
 21
28.83528770975683
 31
0.0
100
AcDbAttributeDefinition
  3
AK oben
  2
AK_oben
 70
     0
 74
     2
  0
ATTDEF
  5
12E
330
10C
100
AcDbEntity
  8
Symbole(ISO)
 62
     7
100
AcDbText
 10
-15.11922386270676
 20
24.61259748150297
 30
0.0
 40
2.5
  1
 
 41
0.899999976158142
  7
TC 2_5 mm-ISOCPEUR
 11
-15.11922386270676
 21
25.86259748150297
 31
0.0
100
AcDbAttributeDefinition
  3
IK unten
  2
IK_unten
 70
     0
 74
     2
  0
ATTDEF
  5
12F
330
10C
100
AcDbEntity
  8
Symbole(ISO)
 62
     7
100
AcDbText
 10
-15.14487582203273
 20
27.61806754523864
 30
0.0
 40
2.5
  1
 
 41
0.899999976158142
  7
TC 2_5 mm-ISOCPEUR
 11
-15.14487582203273
 21
28.86806754523864
 31
0.0
100
AcDbAttributeDefinition
  3
IK oben
  2
IK_oben
 70
     0
 74
     2
  0
ENDBLK
  5
10E
330
10C
100
AcDbEntity
  8
0
100
AcDbBlockEnd
  0
BLOCK
  5
131
330
130
100
AcDbEntity
  8
0
100
AcDbBlockBegin
  2
EN 12329 (Chromatierung)
 70
     0
 10
0.0
 20
0.0
 30
0.0
  3
EN 12329 (Chromatierung)
  1

  0
LINE
  5
133
330
130
100
AcDbEntity
  8
Skizziergeometrie(ISO)
100
AcDbLine
 10
0.0
 20
0.0
 30
0.0
 11
-50.0
 21
0.0
 31
0.0
  0
LINE
  5
134
330
130
100
AcDbEntity
  8
Skizziergeometrie(ISO)
100
AcDbLine
 10
-50.0
 20
0.0
 30
0.0
 11
-50.0
 21
15.0
 31
0.0
  0
LINE
  5
135
330
130
100
AcDbEntity
  8
Skizziergeometrie(ISO)
100
AcDbLine
 10
-50.0
 20
15.0
 30
0.0
 11
0.0
 21
15.00000000000003
 31
0.0
  0
LINE
  5
136
330
130
100
AcDbEntity
  8
Skizziergeometrie(ISO)
100
AcDbLine
 10
0.0
 20
15.00000000000003
 30
0.0
 11
0.0
 21
0.0
 31
0.0
  0
MTEXT
  5
137
330
130
100
AcDbEntity
  8
Symbole(ISO)
 62
     7
100
AcDbMText
 10
-24.98833105758937
 20
7.490142772208123
 30
0.0
 40
2.5
 41
49.83545872181219
 71
     5
 72
     1
  1
Verzinkt FE / ZN / C\PEN 12329\P(gelb chromatiert)
  7
TC 2_5 mm-ISOCPEUR
 73
     2
 44
1.068348169326782
1001
ACAD
1000
MTEXTBEGIN
1070
    73
1070
     2
1070
    44
1040
1.068348169326782
1070
    74
1070
     0
1000
MTEXTEND
  0
ENDBLK
  5
132
330
130
100
AcDbEntity
  8
0
100
AcDbBlockEnd
  0
BLOCK
  5
139
330
138
100
AcDbEntity
  8
0
100
AcDbBlockBegin
  2
ISO 2768 (zul. Abweichung)
 70
     2
 10
0.0
 20
0.0
 30
0.0
  3
ISO 2768 (zul. Abweichung)
  1

  0
LINE
  5
13B
330
138
100
AcDbEntity
  8
Skizziergeometrie(ISO)
100
AcDbLine
 10
-26.0
 20
0.0
 30
0.0
 11
0.0
 21
0.0
 31
0.0
  0
LINE
  5
13C
330
138
100
AcDbEntity
  8
Skizziergeometrie(ISO)
100
AcDbLine
 10
0.0
 20
0.0
 30
0.0
 11
0.0
 21
17.0
 31
0.0
  0
LINE
  5
13D
330
138
100
AcDbEntity
  8
Skizziergeometrie(ISO)
100
AcDbLine
 10
0.0
 20
17.0
 30
0.0
 11
-26.0
 21
17.0
 31
0.0
  0
LINE
  5
13E
330
138
100
AcDbEntity
  8
Skizziergeometrie(ISO)
100
AcDbLine
 10
-26.0
 20
17.0
 30
0.0
 11
-26.0
 21
0.0
 31
0.0
  0
MTEXT
  5
13F
330
138
100
AcDbEntity
  8
Symbole(ISO)
 62
     7
100
AcDbMText
 10
-7.994454197588593
 20
5.526470854171373
 30
0.0
 40
2.5
 41
17.99309312940538
 71
     6
 72
     1
  1
ISO 2768-
  7
TC 2_5 mm-ISOCPEUR
 73
     1
 44
1.0
1001
ACAD
1000
MTEXTBEGIN
1070
    73
1070
     1
1070
    44
1040
1.0
1070
    74
1070
     0
1000
MTEXTEND
  0
ATTDEF
  5
140
330
138
100
AcDbEntity
  8
Symbole(ISO)
 62
     7
100
AcDbText
 10
-7.924832568762529
 20
4.240604076340716
 30
0.0
 40
2.5
  1
 
 41
0.899999976158142
  7
TC 2_5 mm-ISOCPEUR
 11
-7.924832568762529
 21
5.490604076340716
 31
0.0
100
AcDbAttributeDefinition
  3
Grad
  2
Grad
 70
     0
 74
     2
  0
ENDBLK
  5
13A
330
138
100
AcDbEntity
  8
0
100
AcDbBlockEnd
  0
BLOCK
  5
142
330
141
100
AcDbEntity
  8
0
100
AcDbBlockBegin
  2
DIN ISO 1302 (Oberflächen)
 70
     0
 10
0.0
 20
0.0
 30
0.0
  3
DIN ISO 1302 (Oberflächen)
  1

  0
LINE
  5
144
330
141
100
AcDbEntity
  8
Skizziergeometrie(ISO)
100
AcDbLine
 10
-18.19999999999999
 20
0.0
 30
0.0
 11
0.0
 21
0.0
 31
0.0
  0
LINE
  5
145
330
141
100
AcDbEntity
  8
Skizziergeometrie(ISO)
100
AcDbLine
 10
0.0
 20
0.0
 30
0.0
 11
0.0
 21
17.0
 31
0.0
  0
LINE
  5
146
330
141
100
AcDbEntity
  8
Skizziergeometrie(ISO)
100
AcDbLine
 10
0.0
 20
17.0
 30
0.0
 11
-18.2
 21
17.0
 31
0.0
  0
LINE
  5
147
330
141
100
AcDbEntity
  8
Skizziergeometrie(ISO)
100
AcDbLine
 10
-18.2
 20
17.0
 30
0.0
 11
-18.19999999999999
 21
0.0
 31
0.0
  0
MTEXT
  5
148
330
141
100
AcDbEntity
  8
Symbole(ISO)
 62
     7
100
AcDbMText
 10
-9.137586403397849
 20
5.561325836084813
 30
0.0
 40
2.5
 41
18.21623868792871
 71
     5
 72
     1
  1
DIN ISO 1302
  7
TC 2_5 mm-ISOCPEUR
 73
     1
 44
1.0
1001
ACAD
1000
MTEXTBEGIN
1070
    73
1070
     1
1070
    44
1040
1.0
1070
    74
1070
     0
1000
MTEXTEND
  0
ENDBLK
  5
143
330
141
100
AcDbEntity
  8
0
100
AcDbBlockEnd
  0
BLOCK
  5
14A
330
149
100
AcDbEntity
  8
0
100
AcDbBlockBegin
  2
Ränder Ilme Rahmen A4 quer
 70
     0
 10
0.0
 20
0.0
 30
0.0
  3
Ränder Ilme Rahmen A4 quer
  1

  0
LINE
  5
14C
330
149
100
AcDbEntity
  8
Skizziergeometrie(ISO)
100
AcDbLine
 10
9.999999999999982
 20
9.999999999999952
 30
0.0
 11
10.00000000000001
 21
190.0
 31
0.0
  0
LINE
  5
14D
330
149
100
AcDbEntity
  8
Skizziergeometrie(ISO)
100
AcDbLine
 10
10.00000000000001
 20
190.0
 30
0.0
 11
287.0
 21
190.0
 31
0.0
  0
LINE
  5
14E
330
149
100
AcDbEntity
  8
Skizziergeometrie(ISO)
100
AcDbLine
 10
9.999999999999982
 20
9.999999999999952
 30
0.0
 11
287.0
 21
10.00000000000003
 31
0.0
  0
LINE
  5
14F
330
149
100
AcDbEntity
  8
Skizziergeometrie(ISO)
100
AcDbLine
 10
148.5
 20
210.0
 30
0.0
 11
148.5
 21
196.0
 31
0.0
  0
LINE
  5
150
330
149
100
AcDbEntity
  8
Skizziergeometrie(ISO)
100
AcDbLine
 10
287.0
 20
190.0
 30
0.0
 11
287.0
 21
10.00000000000003
 31
0.0
  0
MTEXT
  5
151
330
149
100
AcDbEntity
  8
Symbole(ISO)
 62
     7
100
AcDbMText
 10
148.5
 20
196.0
 30
0.0
 40
3.499999940395355
 41
0.0
 71
     2
 72
     1
  1
\fISOCPEUR|b0|i0;\H3.5000;    Diritti riservati     All rights reseved
  7
TC 2_5 mm
 73
     1
 44
1.0
1001
ACAD
1000
MTEXTBEGIN
1070
    73
1070
     1
1070
    44
1040
1.0
1070
    74
1070
     0
1000
MTEXTEND
  0
ENDBLK
  5
14B
330
149
100
AcDbEntity
  8
0
100
AcDbBlockEnd
  0
BLOCK
  5
155
330
154
100
AcDbEntity
  8
0
100
AcDbBlockBegin
  2
Schriftfelder Ilme
 70
     2
 10
0.0
 20
0.0
 30
0.0
  3
Schriftfelder Ilme
  1

  0
ARC
  5
157
102
{ACAD_REACTORS
330
15B
102
}
330
154
100
AcDbEntity
  8
0
100
AcDbCircle
 10
184.655189950303
 20
19.15390948356282
 30
10.0
 40
0.3333333333333996
100
AcDbArc
 50
0.0
 51
180.0
  0
LINE
  5
158
102
{ACAD_REACTORS
330
15B
102
}
330
154
100
AcDbEntity
  8
0
100
AcDbLine
 10
184.3218566169696
 20
15.84737070168959
 30
10.0
 11
184.3218566169696
 21
19.15390948356282
 31
10.0
  0
ARC
  5
159
102
{ACAD_REACTORS
330
15B
102
}
330
154
100
AcDbEntity
  8
0
100
AcDbCircle
 10
184.655189950303
 20
15.84737070168959
 30
10.0
 40
0.3333333333333997
100
AcDbArc
 50
180.0
 51
0.0
  0
LINE
  5
15A
102
{ACAD_REACTORS
330
15B
102
}
330
154
100
AcDbEntity
  8
0
100
AcDbLine
 10
184.9885232836365
 20
19.15390948356282
 30
10.0
 11
184.9885232836365
 21
15.84737070168959
 31
10.0
  0
HATCH
  5
15B
330
154
100
AcDbEntity
  8
Schraffur
 62
     7
100
AcDbHatch
 10
0.0
 20
0.0
 30
0.0
210
0.0
220
0.0
230
1.0
  2
SOLID
 70
     1
 71
     1
 91
        1
 92
        1
 93
        4
 72
     2
 10
184.655189950303
 20
19.15390948356282
 40
0.3333333333333996
 50
0.0
 51
180.0
 73
     1
 72
     1
 10
184.3218566169696
 20
19.15390948356282
 11
184.3218566169696
 21
15.84737070168959
 72
     2
 10
184.655189950303
 20
15.84737070168959
 40
0.3333333333333997
 50
180.0
 51
360.0
 73
     1
 72
     1
 10
184.9885232836365
 20
15.84737070168959
 11
184.9885232836365
 21
19.15390948356282
 97
        4
330
157
330
158
330
159
330
15A
 75
     0
 76
     1
 98
        1
 10
0.0
 20
0.0
  0
LINE
  5
15C
102
{ACAD_REACTORS
330
163
102
}
330
154
100
AcDbEntity
  8
0
100
AcDbLine
 10
188.4894939320861
 20
14.02010125116808
 30
0.0
 11
186.3218576257727
 21
15.27066065865696
 31
0.0
  0
ARC
  5
15D
102
{ACAD_REACTORS
330
163
102
}
330
154
100
AcDbEntity
  8
0
100
AcDbCircle
 10
188.3229197809228
 20
13.73137272248517
 30
0.0
 40
0.333333333333396
100
AcDbArc
 50
240.0183606311473
 51
60.01836063114733
  0
LINE
  5
15E
102
{ACAD_REACTORS
330
163
102
}
330
154
100
AcDbEntity
  8
0
100
AcDbLine
 10
185.9887104250881
 20
14.69320296572853
 30
0.0
 11
188.1563456297596
 21
13.44264419380229
 31
0.0
  0
ARC
  5
15F
102
{ACAD_REACTORS
330
163
102
}
330
154
100
AcDbEntity
  8
0
100
AcDbCircle
 10
186.3218598278342
 20
15.27066193048824
 30
0.0
 40
0.6666688687282916
100
AcDbArc
 50
180.0
 51
240.0183606311454
  0
LINE
  5
160
102
{ACAD_REACTORS
330
163
102
}
330
154
100
AcDbEntity
  8
0
100
AcDbLine
 10
185.6551909591059
 20
19.94397836659928
 30
0.0
 11
185.6551909591059
 21
15.27066193048824
 31
0.0
  0
ARC
  5
161
102
{ACAD_REACTORS
330
163
102
}
330
154
100
AcDbEntity
  8
0
100
AcDbCircle
 10
185.9885242924393
 20
19.94397836659928
 30
0.0
 40
0.333333333333396
100
AcDbArc
 50
0.0
 51
180.0
  0
LINE
  5
162
102
{ACAD_REACTORS
330
163
102
}
330
154
100
AcDbEntity
  8
0
100
AcDbLine
 10
186.3218576257727
 20
15.27066065865696
 30
0.0
 11
186.3218576257727
 21
19.94397836659928
 31
0.0
  0
HATCH
  5
163
330
154
100
AcDbEntity
  8
Schraffur
 62
     7
100
AcDbHatch
 10
0.0
 20
0.0
 30
0.0
210
0.0
220
0.0
230
1.0
  2
SOLID
 70
     1
 71
     1
 91
        1
 92
        1
 93
        7
 72
     1
 10
188.4894939320861
 20
14.02010125116808
 11
186.3218576257727
 21
15.27066065865696
 72
     1
 10
186.3218576257727
 20
15.27066065865696
 11
186.3218576257727
 21
19.94397836659928
 72
     2
 10
185.9885242924393
 20
19.94397836659928
 40
0.333333333333396
 50
0.0
 51
180.0
 73
     1
 72
     1
 10
185.6551909591059
 20
19.94397836659928
 11
185.6551909591059
 21
15.27066193048824
 72
     2
 10
186.3218598278342
 20
15.27066193048824
 40
0.6666688687282916
 50
180.0
 51
240.0183606311454
 73
     1
 72
     1
 10
185.9887104250881
 20
14.69320296572853
 11
188.1563456297596
 21
13.44264419380229
 72
     2
 10
188.3229197809228
 20
13.73137272248517
 40
0.333333333333396
 50
240.0183606311473
 51
420.0183606311473
 73
     1
 97
        7
330
15C
330
162
330
161
330
160
330
15F
330
15E
330
15D
 75
     0
 76
     1
 98
        1
 10
0.0
 20
0.0
  0
LINE
  5
164
102
{ACAD_REACTORS
330
171
102
}
330
154
100
AcDbEntity
  8
0
100
AcDbLine
 10
188.655189950303
 20
18.85482345606895
 30
0.0
 11
187.4829623801859
 21
20.88518116554469
 31
0.0
  0
LINE
  5
165
102
{ACAD_REACTORS
330
171
102
}
330
154
100
AcDbEntity
  8
0
100
AcDbLine
 10
189.82741752042
 20
20.88518116554469
 30
0.0
 11
188.655189950303
 21
18.85482345606895
 31
0.0
  0
ARC
  5
166
102
{ACAD_REACTORS
330
171
102
}
330
154
100
AcDbEntity
  8
0
100
AcDbCircle
 10
190.0568849915682
 20
20.75269805930704
 30
0.0
 40
0.2649662124752865
100
AcDbArc
 50
0.0
 51
149.9999999999939
  0
LINE
  5
167
102
{ACAD_REACTORS
330
171
102
}
330
154
100
AcDbEntity
  8
0
100
AcDbLine
 10
190.3218512040435
 20
14.28806850858179
 30
0.0
 11
190.3218512040435
 21
20.75269805930705
 31
0.0
  0
ARC
  5
168
102
{ACAD_REACTORS
330
171
102
}
330
154
100
AcDbEntity
  8
0
100
AcDbCircle
 10
189.98851787071
 20
14.28806850858179
 30
0.0
 40
0.3333333333334023
100
AcDbArc
 50
180.0
 51
0.0
  0
LINE
  5
169
102
{ACAD_REACTORS
330
171
102
}
330
154
100
AcDbEntity
  8
0
100
AcDbLine
 10
189.6551845373767
 20
19.25353601487275
 30
0.0
 11
189.6551845373766
 21
14.28806850858179
 31
0.0
  0
LINE
  5
16A
102
{ACAD_REACTORS
330
171
102
}
330
154
100
AcDbEntity
  8
0
100
AcDbLine
 10
188.7995275176003
 20
17.77149458276708
 30
0.0
 11
189.6551845373767
 21
19.25353601487275
 31
0.0
  0
ARC
  5
16B
102
{ACAD_REACTORS
330
171
102
}
330
154
100
AcDbEntity
  8
0
100
AcDbCircle
 10
188.655189950303
 20
17.85482791610036
 30
0.0
 40
0.1666666666665381
100
AcDbArc
 50
209.9999999999992
 51
330.0000000000008
  0
LINE
  5
16C
102
{ACAD_REACTORS
330
171
102
}
330
154
100
AcDbEntity
  8
0
100
AcDbLine
 10
187.6551953632293
 20
19.25353601487277
 30
0.0
 11
188.5108523830057
 21
17.77149458276708
 31
0.0
  0
LINE
  5
16D
102
{ACAD_REACTORS
330
171
102
}
330
154
100
AcDbEntity
  8
0
100
AcDbLine
 10
187.6551953632293
 20
15.84737070168959
 30
0.0
 11
187.6551953632293
 21
19.25353601487277
 31
0.0
  0
ARC
  5
16E
102
{ACAD_REACTORS
330
171
102
}
330
154
100
AcDbEntity
  8
0
100
AcDbCircle
 10
187.3218620298959
 20
15.84737070168959
 30
0.0
 40
0.333333333333396
100
AcDbArc
 50
180.0
 51
0.0
  0
LINE
  5
16F
102
{ACAD_REACTORS
330
171
102
}
330
154
100
AcDbEntity
  8
0
100
AcDbLine
 10
186.9885286965624
 20
20.75269805930705
 30
0.0
 11
186.9885286965624
 21
15.84737070168959
 31
0.0
  0
ARC
  5
170
102
{ACAD_REACTORS
330
171
102
}
330
154
100
AcDbEntity
  8
0
100
AcDbCircle
 10
187.2534949090378
 20
20.75269805930705
 30
0.0
 40
0.2649662124752854
100
AcDbArc
 50
29.9999999999981
 51
180.0
  0
HATCH
  5
171
330
154
100
AcDbEntity
  8
Schraffur
 62
     7
100
AcDbHatch
 10
0.0
 20
0.0
 30
0.0
210
0.0
220
0.0
230
1.0
  2
SOLID
 70
     1
 71
     1
 91
        1
 92
        1
 93
       13
 72
     1
 10
188.655189950303
 20
18.85482345606895
 11
187.4829623801859
 21
20.88518116554469
 72
     2
 10
187.2534949090378
 20
20.75269805930705
 40
0.2649662124752854
 50
29.9999999999981
 51
180.0
 73
     1
 72
     1
 10
186.9885286965624
 20
20.75269805930705
 11
186.9885286965624
 21
15.84737070168959
 72
     2
 10
187.3218620298959
 20
15.84737070168959
 40
0.333333333333396
 50
180.0
 51
360.0
 73
     1
 72
     1
 10
187.6551953632293
 20
15.84737070168959
 11
187.6551953632293
 21
19.25353601487277
 72
     1
 10
187.6551953632293
 20
19.25353601487277
 11
188.5108523830057
 21
17.77149458276708
 72
     2
 10
188.655189950303
 20
17.85482791610036
 40
0.1666666666665381
 50
209.9999999999992
 51
330.0000000000008
 73
     1
 72
     1
 10
188.7995275176003
 20
17.77149458276708
 11
189.6551845373767
 21
19.25353601487275
 72
     1
 10
189.6551845373767
 20
19.25353601487275
 11
189.6551845373766
 21
14.28806850858179
 72
     2
 10
189.98851787071
 20
14.28806850858179
 40
0.3333333333334023
 50
180.0
 51
360.0
 73
     1
 72
     1
 10
190.3218512040435
 20
14.28806850858179
 11
190.3218512040435
 21
20.75269805930705
 72
     2
 10
190.0568849915682
 20
20.75269805930704
 40
0.2649662124752865
 50
0.0
 51
149.9999999999939
 73
     1
 72
     1
 10
189.82741752042
 20
20.88518116554469
 11
188.655189950303
 21
18.85482345606894
 97
       13
330
164
330
170
330
16F
330
16E
330
16D
330
16C
330
16B
330
16A
330
169
330
168
330
167
330
166
330
165
 75
     0
 76
     1
 98
        1
 10
0.0
 20
0.0
  0
ARC
  5
172
102
{ACAD_REACTORS
330
180
102
}
330
154
100
AcDbEntity
  8
0
100
AcDbCircle
 10
192.6913083387628
 20
15.84737070168959
 30
10.0
 40
0.3333333333333919
100
AcDbArc
 50
299.9816393688529
 51
119.9816393688526
  0
LINE
  5
173
102
{ACAD_REACTORS
330
180
102
}
330
154
100
AcDbEntity
  8
0
100
AcDbLine
 10
191.6551889415001
 20
15.6344385114688
 30
10.0
 11
192.5247341875995
 21
16.13609923037247
 31
10.0
  0
LINE
  5
174
102
{ACAD_REACTORS
330
180
102
}
330
154
100
AcDbEntity
  8
0
100
AcDbLine
 10
191.6551889415001
 20
17.1673067592928
 30
10.0
 11
191.6551889415001
 21
15.6344385114688
 31
10.0
  0
LINE
  5
175
102
{ACAD_REACTORS
330
180
102
}
330
154
100
AcDbEntity
  8
0
100
AcDbLine
 10
192.6913083387628
 20
17.1673067592928
 30
10.0
 11
191.6551889415001
 21
17.1673067592928
 31
10.0
  0
ARC
  5
176
102
{ACAD_REACTORS
330
180
102
}
330
154
100
AcDbEntity
  8
0
100
AcDbCircle
 10
192.6913083387628
 20
17.5006400926262
 30
10.0
 40
0.333333333333396
100
AcDbArc
 50
270.0
 51
90.0
  0
LINE
  5
177
102
{ACAD_REACTORS
330
180
102
}
330
154
100
AcDbEntity
  8
0
100
AcDbLine
 10
191.6551889415001
 20
17.8339734259596
 30
10.0
 11
192.6913083387628
 21
17.8339734259596
 31
10.0
  0
LINE
  5
178
102
{ACAD_REACTORS
330
180
102
}
330
154
100
AcDbEntity
  8
0
100
AcDbLine
 10
191.6551889415001
 20
19.36684167378358
 30
10.0
 11
191.6551889415001
 21
17.8339734259596
 31
10.0
  0
LINE
  5
179
102
{ACAD_REACTORS
330
180
102
}
330
154
100
AcDbEntity
  8
0
100
AcDbLine
 10
192.5247341875995
 20
18.86518095487989
 30
10.0
 11
191.6551889415001
 21
19.36684167378358
 31
10.0
  0
ARC
  5
17A
102
{ACAD_REACTORS
330
180
102
}
330
154
100
AcDbEntity
  8
0
100
AcDbCircle
 10
192.6913083387628
 20
19.15390948356282
 30
10.0
 40
0.3333333333333963
100
AcDbArc
 50
240.0183606311407
 51
60.01835942372524
  0
LINE
  5
17B
102
{ACAD_REACTORS
330
180
102
}
330
154
100
AcDbEntity
  8
0
100
AcDbLine
 10
191.4884297593299
 20
20.23270689528218
 30
10.0
 11
192.857882489926
 21
19.44263801224573
 31
10.0
  0
ARC
  5
17C
102
{ACAD_REACTORS
330
180
102
}
330
154
100
AcDbEntity
  8
0
100
AcDbCircle
 10
191.3218556081666
 20
19.94397836659928
 30
10.0
 40
0.333333333333396
100
AcDbArc
 50
60.01836063114071
 51
180.0
  0
LINE
  5
17D
102
{ACAD_REACTORS
330
180
102
}
330
154
100
AcDbEntity
  8
0
100
AcDbLine
 10
190.9885222748332
 20
15.05730181865312
 30
10.0
 11
190.9885222748332
 21
19.94397836659928
 31
10.0
  0
ARC
  5
17E
102
{ACAD_REACTORS
330
180
102
}
330
154
100
AcDbEntity
  8
0
100
AcDbCircle
 10
191.3218556081666
 20
15.05730181865312
 30
10.0
 40
0.333333333333396
100
AcDbArc
 50
180.0
 51
299.9816393688593
  0
LINE
  5
17F
102
{ACAD_REACTORS
330
180
102
}
330
154
100
AcDbEntity
  8
0
100
AcDbLine
 10
192.857882489926
 20
15.55864217300668
 30
10.0
 11
191.4884297593299
 21
14.7685732899702
 31
10.0
  0
HATCH
  5
180
330
154
100
AcDbEntity
  8
Schraffur
 62
     7
100
AcDbHatch
 10
0.0
 20
0.0
 30
0.0
210
0.0
220
0.0
230
1.0
  2
SOLID
 70
     1
 71
     1
 91
        1
 92
        1
 93
       14
 72
     2
 10
192.6913083387628
 20
15.84737070168959
 40
0.3333333333333919
 50
299.9816393688529
 51
479.9816393688526
 73
     1
 72
     1
 10
192.5247341875995
 20
16.13609923037247
 11
191.6551889415001
 21
15.63443851146881
 72
     1
 10
191.6551889415001
 20
15.6344385114688
 11
191.6551889415001
 21
17.1673067592928
 72
     1
 10
191.6551889415001
 20
17.1673067592928
 11
192.6913083387628
 21
17.1673067592928
 72
     2
 10
192.6913083387628
 20
17.5006400926262
 40
0.333333333333396
 50
270.0
 51
450.0
 73
     1
 72
     1
 10
192.6913083387628
 20
17.8339734259596
 11
191.6551889415001
 21
17.8339734259596
 72
     1
 10
191.6551889415001
 20
17.8339734259596
 11
191.6551889415001
 21
19.36684167378358
 72
     1
 10
191.6551889415001
 20
19.36684167378358
 11
192.5247341875995
 21
18.86518095487989
 72
     2
 10
192.6913083387628
 20
19.15390948356282
 40
0.3333333333333963
 50
240.0183606311407
 51
420.0183594237252
 73
     1
 72
     1
 10
192.857882489926
 20
19.44263801224573
 11
191.4884297593299
 21
20.23270689528218
 72
     2
 10
191.3218556081666
 20
19.94397836659928
 40
0.333333333333396
 50
60.01836063114071
 51
180.0
 73
     1
 72
     1
 10
190.9885222748332
 20
19.94397836659928
 11
190.9885222748332
 21
15.05730181865312
 72
     2
 10
191.3218556081666
 20
15.05730181865312
 40
0.333333333333396
 50
180.0
 51
299.9816393688593
 73
     1
 72
     1
 10
191.4884297593299
 20
14.7685732899702
 11
192.857882489926
 21
15.55864217300668
 97
       14
330
172
330
173
330
174
330
175
330
176
330
177
330
178
330
179
330
17A
330
17B
330
17C
330
17D
330
17E
330
17F
 75
     0
 76
     1
 98
        1
 10
0.0
 20
0.0
  0
LINE
  5
181
330
154
100
AcDbEntity
  8
Skizziergeometrie(ISO)
100
AcDbLine
 10
19.98018995030303
 20
45.0006400926262
 30
0.0
 11
199.980189950303
 21
45.0006400926262
 31
0.0
  0
LINE
  5
182
330
154
100
AcDbEntity
  8
Skizziergeometrie(ISO)
100
AcDbLine
 10
19.98018995030303
 20
40.0006400926262
 30
0.0
 11
199.980189950303
 21
40.0006400926262
 31
0.0
  0
LINE
  5
183
330
154
100
AcDbEntity
  8
Skizziergeometrie(ISO)
100
AcDbLine
 10
19.98018995030303
 20
35.00064009262621
 30
0.0
 11
199.980189950303
 21
35.00064009262621
 31
0.0
  0
LINE
  5
184
330
154
100
AcDbEntity
  8
Skizziergeometrie(ISO)
100
AcDbLine
 10
19.98018995030303
 20
30.00064009262621
 30
0.0
 11
199.980189950303
 21
30.00064009262621
 31
0.0
  0
LINE
  5
185
330
154
100
AcDbEntity
  8
Skizziergeometrie(ISO)
100
AcDbLine
 10
19.98018995030303
 20
25.00064009262621
 30
0.0
 11
199.980189950303
 21
25.00064009262621
 31
0.0
  0
LINE
  5
186
330
154
100
AcDbEntity
  8
Skizziergeometrie(ISO)
100
AcDbLine
 10
19.98018995030303
 20
17.5006400926262
 30
0.0
 11
49.98018995030306
 21
17.5006400926262
 31
0.0
  0
LINE
  5
187
330
154
100
AcDbEntity
  8
Skizziergeometrie(ISO)
100
AcDbLine
 10
26.98018995030303
 20
45.0006400926262
 30
0.0
 11
26.98018995030303
 21
25.00064009262621
 31
0.0
  0
LINE
  5
188
330
154
100
AcDbEntity
  8
Skizziergeometrie(ISO)
100
AcDbLine
 10
44.98018995030303
 20
45.0006400926262
 30
0.0
 11
44.98018995030303
 21
25.00064009262621
 31
0.0
  0
LINE
  5
189
330
154
100
AcDbEntity
  8
Skizziergeometrie(ISO)
100
AcDbLine
 10
49.98018995030306
 20
10.0006400926262
 30
0.0
 11
49.98018995030306
 21
25.00064009262621
 31
0.0
  0
LINE
  5
18A
330
154
100
AcDbEntity
  8
Skizziergeometrie(ISO)
100
AcDbLine
 10
159.980189950303
 20
25.00064009262621
 30
0.0
 11
159.980189950303
 21
10.0006400926262
 31
0.0
  0
LINE
  5
18B
330
154
100
AcDbEntity
  8
Skizziergeometrie(ISO)
100
AcDbLine
 10
177.3301899503031
 20
25.0006400926262
 30
0.0
 11
177.3301899503031
 21
10.0006400926262
 31
0.0
  0
LINE
  5
18C
330
154
100
AcDbEntity
  8
Skizziergeometrie(ISO)
100
AcDbLine
 10
190.9885222748332
 20
15.05730181865312
 30
0.0
 11
190.9885222748332
 21
19.94397836659928
 31
0.0
  0
LINE
  5
18D
330
154
100
AcDbEntity
  8
Skizziergeometrie(ISO)
100
AcDbLine
 10
192.857882489926
 20
15.55864217300668
 30
0.0
 11
191.4884297593299
 21
14.7685732899702
 31
0.0
  0
LINE
  5
18E
330
154
100
AcDbEntity
  8
Skizziergeometrie(ISO)
100
AcDbLine
 10
191.6551889415001
 20
15.6344385114688
 30
0.0
 11
192.5247341875995
 21
16.13609923037247
 31
0.0
  0
LINE
  5
18F
330
154
100
AcDbEntity
  8
Skizziergeometrie(ISO)
100
AcDbLine
 10
191.6551889415001
 20
17.1673067592928
 30
0.0
 11
191.6551889415001
 21
15.6344385114688
 31
0.0
  0
LINE
  5
190
330
154
100
AcDbEntity
  8
Skizziergeometrie(ISO)
100
AcDbLine
 10
192.6913083387628
 20
17.1673067592928
 30
0.0
 11
191.6551889415001
 21
17.1673067592928
 31
0.0
  0
LINE
  5
191
330
154
100
AcDbEntity
  8
Skizziergeometrie(ISO)
100
AcDbLine
 10
191.6551889415001
 20
17.8339734259596
 30
0.0
 11
192.6913083387628
 21
17.8339734259596
 31
0.0
  0
LINE
  5
192
330
154
100
AcDbEntity
  8
Skizziergeometrie(ISO)
100
AcDbLine
 10
191.6551889415001
 20
19.36684167378358
 30
0.0
 11
191.6551889415001
 21
17.8339734259596
 31
0.0
  0
LINE
  5
193
330
154
100
AcDbEntity
  8
Skizziergeometrie(ISO)
100
AcDbLine
 10
192.5247341875995
 20
18.86518095487989
 30
0.0
 11
191.6551889415001
 21
19.36684167378358
 31
0.0
  0
LINE
  5
194
330
154
100
AcDbEntity
  8
Skizziergeometrie(ISO)
100
AcDbLine
 10
191.4884297593299
 20
20.23270689528218
 30
0.0
 11
192.857882489926
 21
19.44263801224573
 31
0.0
  0
LINE
  5
195
330
154
100
AcDbEntity
  8
Skizziergeometrie(ISO)
100
AcDbLine
 10
184.3218566169696
 20
15.84737070168959
 30
0.0
 11
184.3218566169696
 21
19.15390948356282
 31
0.0
  0
LINE
  5
196
330
154
100
AcDbEntity
  8
Skizziergeometrie(ISO)
100
AcDbLine
 10
184.9885232836365
 20
19.15390948356282
 30
0.0
 11
184.9885232836365
 21
15.84737070168959
 31
0.0
  0
LINE
  5
197
330
154
100
AcDbEntity
  8
Skizziergeometrie(ISO)
100
AcDbLine
 10
188.1563456297596
 20
13.44264419380229
 30
0.0
 11
185.9887104250881
 21
14.69320296572853
 31
0.0
  0
LINE
  5
198
330
154
100
AcDbEntity
  8
Skizziergeometrie(ISO)
100
AcDbLine
 10
186.3218576257727
 20
15.27066065865696
 30
0.0
 11
188.4894939320861
 21
14.02010125116808
 31
0.0
  0
LINE
  5
199
330
154
100
AcDbEntity
  8
Skizziergeometrie(ISO)
100
AcDbLine
 10
186.3218576257727
 20
19.94397836659928
 30
0.0
 11
186.3218576257727
 21
15.27066065865696
 31
0.0
  0
LINE
  5
19A
330
154
100
AcDbEntity
  8
Skizziergeometrie(ISO)
100
AcDbLine
 10
185.6551909591059
 20
15.27066193048824
 30
0.0
 11
185.6551909591059
 21
19.94397836659928
 31
0.0
  0
LINE
  5
19B
330
154
100
AcDbEntity
  8
Skizziergeometrie(ISO)
100
AcDbLine
 10
189.82741752042
 20
20.88518116554469
 30
0.0
 11
188.655189950303
 21
18.85482345606895
 31
0.0
  0
LINE
  5
19C
330
154
100
AcDbEntity
  8
Skizziergeometrie(ISO)
100
AcDbLine
 10
190.3218512040435
 20
14.28806850858179
 30
0.0
 11
190.3218512040435
 21
20.75269805930705
 31
0.0
  0
LINE
  5
19D
330
154
100
AcDbEntity
  8
Skizziergeometrie(ISO)
100
AcDbLine
 10
187.4829623801859
 20
20.88518116554469
 30
0.0
 11
188.655189950303
 21
18.85482345606895
 31
0.0
  0
LINE
  5
19E
330
154
100
AcDbEntity
  8
Skizziergeometrie(ISO)
100
AcDbLine
 10
186.9885286965624
 20
15.84737070168959
 30
0.0
 11
186.9885286965624
 21
20.75269805930705
 31
0.0
  0
LINE
  5
19F
330
154
100
AcDbEntity
  8
Skizziergeometrie(ISO)
100
AcDbLine
 10
188.655189950303
 20
12.50064009262539
 30
0.0
 11
180.2387546751623
 21
17.35627582828491
 31
0.0
  0
LINE
  5
1A0
330
154
100
AcDbEntity
  8
Skizziergeometrie(ISO)
100
AcDbLine
 10
197.0716252254436
 20
17.35627582828489
 30
0.0
 11
188.655189950303
 21
12.50064009262539
 31
0.0
  0
LINE
  5
1A1
330
154
100
AcDbEntity
  8
Skizziergeometrie(ISO)
100
AcDbLine
 10
188.655189950303
 20
22.50064009262702
 30
0.0
 11
197.0716252254436
 21
17.6450043569675
 31
0.0
  0
LINE
  5
1A2
330
154
100
AcDbEntity
  8
Skizziergeometrie(ISO)
100
AcDbLine
 10
180.2387546751623
 20
17.6450043569675
 30
0.0
 11
188.655189950303
 21
22.50064009262702
 31
0.0
  0
LINE
  5
1A3
330
154
100
AcDbEntity
  8
Skizziergeometrie(ISO)
100
AcDbLine
 10
187.6551953632293
 20
19.25353601487277
 30
0.0
 11
187.6551953632293
 21
15.84737070168959
 31
0.0
  0
LINE
  5
1A4
330
154
100
AcDbEntity
  8
Skizziergeometrie(ISO)
100
AcDbLine
 10
188.5108523830057
 20
17.77149458276708
 30
0.0
 11
187.6551953632293
 21
19.25353601487277
 31
0.0
  0
LINE
  5
1A5
330
154
100
AcDbEntity
  8
Skizziergeometrie(ISO)
100
AcDbLine
 10
189.6551845373767
 20
19.25353601487275
 30
0.0
 11
188.7995275176003
 21
17.77149458276708
 31
0.0
  0
LINE
  5
1A6
330
154
100
AcDbEntity
  8
Skizziergeometrie(ISO)
100
AcDbLine
 10
189.6551845373766
 20
14.28806850858179
 30
0.0
 11
189.6551845373767
 21
19.25353601487275
 31
0.0
  0
ARC
  5
1A7
330
154
100
AcDbEntity
  8
Skizziergeometrie(ISO)
100
AcDbCircle
 10
192.6913083387628
 20
15.84737070168959
 30
0.0
 40
0.3333333333333919
100
AcDbArc
 50
299.9816393688527
 51
119.98163936886
  0
ARC
  5
1A8
330
154
100
AcDbEntity
  8
Skizziergeometrie(ISO)
100
AcDbCircle
 10
192.6913083387628
 20
17.5006400926262
 30
0.0
 40
0.333333333333396
100
AcDbArc
 50
270.0
 51
90.0
  0
ARC
  5
1A9
330
154
100
AcDbEntity
  8
Skizziergeometrie(ISO)
100
AcDbCircle
 10
192.6913083387628
 20
19.15390948356282
 30
0.0
 40
0.3333333333333963
100
AcDbArc
 50
240.0183606311413
 51
60.01836063114108
  0
ARC
  5
1AA
330
154
100
AcDbEntity
  8
Skizziergeometrie(ISO)
100
AcDbCircle
 10
184.655189950303
 20
15.84737070168959
 30
0.0
 40
0.3333333333333997
100
AcDbArc
 50
180.0
 51
0.0
  0
ARC
  5
1AB
330
154
100
AcDbEntity
  8
Skizziergeometrie(ISO)
100
AcDbCircle
 10
184.655189950303
 20
19.15390948356282
 30
0.0
 40
0.3333333333333996
100
AcDbArc
 50
0.0
 51
180.0
  0
ARC
  5
1AC
330
154
100
AcDbEntity
  8
Skizziergeometrie(ISO)
100
AcDbCircle
 10
188.3229197809228
 20
13.73137272248517
 30
0.0
 40
0.333333333333396
100
AcDbArc
 50
240.0183606311468
 51
60.01836063114108
  0
ARC
  5
1AD
330
154
100
AcDbEntity
  8
Skizziergeometrie(ISO)
100
AcDbCircle
 10
185.9885242924393
 20
19.94397836659928
 30
0.0
 40
0.333333333333396
100
AcDbArc
 50
0.0
 51
180.0
  0
ARC
  5
1AE
330
154
100
AcDbEntity
  8
Skizziergeometrie(ISO)
100
AcDbCircle
 10
190.0568849915682
 20
20.75269805930704
 30
0.0
 40
0.2649662124752865
100
AcDbArc
 50
0.0
 51
149.9999999999956
  0
ARC
  5
1AF
330
154
100
AcDbEntity
  8
Skizziergeometrie(ISO)
100
AcDbCircle
 10
189.98851787071
 20
14.28806850858179
 30
0.0
 40
0.3333333333334023
100
AcDbArc
 50
180.0
 51
0.0
  0
ARC
  5
1B0
330
154
100
AcDbEntity
  8
Skizziergeometrie(ISO)
100
AcDbCircle
 10
187.3218620298959
 20
15.84737070168959
 30
0.0
 40
0.333333333333396
100
AcDbArc
 50
180.0
 51
0.0
  0
ARC
  5
1B1
330
154
100
AcDbEntity
  8
Skizziergeometrie(ISO)
100
AcDbCircle
 10
187.2534949090378
 20
20.75269805930705
 30
0.0
 40
0.2649662124752854
100
AcDbArc
 50
29.99999999999976
 51
180.0
  0
ARC
  5
1B2
330
154
100
AcDbEntity
  8
Skizziergeometrie(ISO)
100
AcDbCircle
 10
191.3218556081666
 20
15.05730181865312
 30
0.0
 40
0.333333333333396
100
AcDbArc
 50
180.0
 51
299.9816393688587
  0
ARC
  5
1B3
330
154
100
AcDbEntity
  8
Skizziergeometrie(ISO)
100
AcDbCircle
 10
191.3218556081666
 20
19.94397836659928
 30
0.0
 40
0.333333333333396
100
AcDbArc
 50
60.01836063114071
 51
180.0
  0
ARC
  5
1B4
330
154
100
AcDbEntity
  8
Skizziergeometrie(ISO)
100
AcDbCircle
 10
196.9883381498621
 20
17.5006400926262
 30
0.0
 40
0.1666666666665381
100
AcDbArc
 50
299.9816393688627
 51
60.01836063115012
  0
ARC
  5
1B5
330
154
100
AcDbEntity
  8
Skizziergeometrie(ISO)
100
AcDbCircle
 10
180.3220417507439
 20
17.5006400926262
 30
0.0
 40
0.1666666666665381
100
AcDbArc
 50
119.9816393688498
 51
240.0183606311497
  0
ARC
  5
1B6
330
154
100
AcDbEntity
  8
Skizziergeometrie(ISO)
100
AcDbCircle
 10
186.3218598278342
 20
15.27066193048824
 30
0.0
 40
0.6666688687282916
100
AcDbArc
 50
180.0
 51
240.0183606311453
  0
ARC
  5
1B7
330
154
100
AcDbEntity
  8
Skizziergeometrie(ISO)
100
AcDbCircle
 10
188.655189950303
 20
17.85482791610036
 30
0.0
 40
0.1666666666665381
100
AcDbArc
 50
209.9999999999999
 51
330.0000000000001
  0
LINE
  5
1B8
330
154
100
AcDbEntity
  8
Skizzierlinie(TC_020513_DIN)
100
AcDbLine
 10
20.98018995030303
 20
25.00064009262621
 30
0.0
 11
20.98018995030303
 21
17.5006400926262
 31
0.0
  0
LINE
  5
1B9
330
154
100
AcDbEntity
  8
Skizzierlinie(TC_020513_DIN)
100
AcDbLine
 10
20.98018995030303
 20
17.5006400926262
 30
0.0
 11
20.980189950303
 21
10.0006400926262
 31
0.0
  0
LINE
  5
1BA
330
154
100
AcDbEntity
  8
Skizzierlinie(TC_020513_DIN)
100
AcDbLine
 10
49.98018995030306
 20
25.00064009262621
 30
0.0
 11
29.98018995030301
 21
17.5006400926262
 31
0.0
  0
LINE
  5
1BB
330
154
100
AcDbEntity
  8
Skizzierlinie(TC_020513_DIN)
100
AcDbLine
 10
177.3301899503031
 20
25.0006400926262
 30
0.0
 11
159.980189950303
 21
20.0006400926262
 31
0.0
  0
LINE
  5
1BC
330
154
100
AcDbEntity
  8
Skizzierlinie(TC_020513_DIN)
100
AcDbLine
 10
159.980189950303
 20
20.0006400926262
 30
0.0
 11
177.3301899503031
 21
10.0006400926262
 31
0.0
  0
LINE
  5
1BD
330
154
100
AcDbEntity
  8
Skizziergeometrie(ISO)
100
AcDbLine
 10
19.98018995030303
 20
45.0006400926262
 30
0.0
 11
19.98018995030303
 21
10.0006400926262
 31
0.0
  0
LINE
  5
1BE
330
154
100
AcDbEntity
  8
Skizzierlinie(TC_020513_DIN)
100
AcDbLine
 10
50.98018995030301
 20
25.00064009262621
 30
0.0
 11
50.98018995030301
 21
17.5006400926262
 31
0.0
  0
LINE
  5
1BF
330
154
100
AcDbEntity
  8
Skizzierlinie(TC_020513_DIN)
100
AcDbLine
 10
50.98018995030301
 20
17.5006400926262
 30
0.0
 11
50.98018995030301
 21
10.0006400926262
 31
0.0
  0
MTEXT
  5
1C0
330
154
100
AcDbEntity
  8
Symbole(ISO)
 62
     7
100
AcDbMText
 10
20.98018995030303
 20
21.2506400926262
 30
0.0
 40
2.5
 41
8.997516465920178
 71
     4
 72
     1
  1
 Date
  7
TC 2_5 mm
 73
     1
 44
1.0
1001
ACAD
1000
MTEXTBEGIN
1070
    73
1070
     1
1070
    44
1040
1.0
1070
    74
1070
     0
1000
MTEXTEND
  0
MTEXT
  5
1C1
330
154
100
AcDbEntity
  8
Symbole(ISO)
 62
     7
100
AcDbMText
 10
20.980189950303
 20
13.7506400926262
 30
0.0
 40
2.5
 41
8.970966064125889
 71
     4
 72
     1
  1
 Sign.
  7
TC 2_5 mm
 73
     1
 44
1.0
1001
ACAD
1000
MTEXTBEGIN
1070
    73
1070
     1
1070
    44
1040
1.0
1070
    74
1070
     0
1000
MTEXTEND
  0
MTEXT
  5
1C2
330
154
100
AcDbEntity
  8
Symbole(ISO)
 62
     7
100
AcDbMText
 10
168.655189950303
 20
22.5006400926262
 30
0.0
 40
2.5
 41
17.34061856478945
 71
     5
 72
     1
  1
Scale
  7
TC 2_5 mm
 73
     1
 44
1.0
1001
ACAD
1000
MTEXTBEGIN
1070
    73
1070
     1
1070
    44
1040
1.0
1070
    74
1070
     0
1000
MTEXTEND
  0
MTEXT
  5
1C3
330
154
100
AcDbEntity
  8
Symbole(ISO)
 62
     7
100
AcDbMText
 10
39.98018995030301
 20
21.2506400926262
 30
0.0
 40
3.499999940395355
 41
20.95325017112982
 71
     5
 72
     1
  1
04.01.2007
  7
TC 3_5 mm
 73
     1
 44
1.0
1001
ACAD
1000
MTEXTBEGIN
1070
    73
1070
     1
1070
    44
1040
1.0
1070
    74
1070
     0
1000
MTEXTEND
  0
ATTDEF
  5
1C4
330
154
100
AcDbEntity
  8
Symbole(ISO)
 62
     7
100
AcDbText
 10
50.98018995030301
 20
11.75064006282388
 30
0.0
 40
4.000000059604644
  1
surface mount.h.pegs and cover M32 ins.
  7
Kopie von TC 5 mm
 11
50.98018995030301
 21
13.7506400926262
 31
0.0
100
AcDbAttributeDefinition
  3
BEZEICHNUNG
  2
BEZEICHNUNG
 70
     0
 74
     2
  0
ATTDEF
  5
1C5
330
154
100
AcDbEntity
  8
Symbole(ISO)
 62
     7
100
AcDbText
 10
164.2856470919772
 20
12.5006400926262
 30
0.0
 40
5.0
  1
1:2
 41
0.899999976158142
  7
TC 5 mm
 72
     1
 11
168.655189950303
 21
15.0006400926262
 31
0.0
100
AcDbAttributeDefinition
  3
FirstViewScale
  2
FirstViewScale
 70
     0
 74
     2
  0
ATTDEF
  5
1C6
330
154
100
AcDbEntity
  8
Symbole(ISO)
 62
     7
100
AcDbText
 10
50.98018995030301
 20
19.25064006282388
 30
0.0
 40
4.000000059604644
  1
MMAP 16 CS32
 41
1.199999928474426
  7
Kopie von TC 5 mm
 11
50.98018995030301
 21
21.2506400926262
 31
0.0
100
AcDbAttributeDefinition
  3
BAUTEILNUMMER
  2
BAUTEILNUMMER
 70
     0
 74
     2
  0
ENDBLK
  5
156
330
154
100
AcDbEntity
  8
0
100
AcDbBlockEnd
  0
BLOCK
  5
306
330
2FB
100
AcDbEntity
  8
0
100
AcDbBlockBegin
  2
*D11
 70
     1
 10
0.0
 20
0.0
 30
0.0
  3
*D11
  1

  0
LINE
  5
3B6
330
2FB
100
AcDbEntity
  8
Bemaßungen(TC_020513_DIN)
  6
Continuous
 62
     7
370
    25
100
AcDbLine
 10
347.0344435099791
 20
211.5271186801774
 30
0.0
 11
369.0344435099792
 21
211.5271186801774
 31
0.0
  0
LINE
  5
3B7
330
2FB
100
AcDbEntity
  8
Bemaßungen(TC_020513_DIN)
  6
Continuous
 62
     7
370
    25
100
AcDbLine
 10
347.0344435099791
 20
179.5271186801773
 30
0.0
 11
369.0344435099792
 21
179.5271186801773
 31
0.0
  0
LINE
  5
3B8
330
2FB
100
AcDbEntity
  8
Bemaßungen(TC_020513_DIN)
  6
Continuous
 62
     7
370
    25
100
AcDbLine
 10
365.0344435099792
 20
206.5271186801774
 30
0.0
 11
365.0344435099792
 21
184.5271186801773
 31
0.0
  0
SOLID
  5
3B9
330
2FB
100
AcDbEntity
  8
Bemaßungen(TC_020513_DIN)
  6
Continuous
 62
     7
100
AcDbTrace
 10
364.2011101766458
 20
206.5271186801774
 30
0.0
 11
365.8677768433125
 21
206.5271186801774
 31
0.0
 12
365.0344435099792
 22
211.5271186801774
 32
0.0
 13
365.0344435099792
 23
211.5271186801774
 33
0.0
  0
SOLID
  5
3BA
330
2FB
100
AcDbEntity
  8
Bemaßungen(TC_020513_DIN)
  6
Continuous
 62
     7
100
AcDbTrace
 10
364.2011101766458
 20
184.5271186801773
 30
0.0
 11
365.8677768433125
 21
184.5271186801773
 31
0.0
 12
365.0344435099792
 22
179.5271186801773
 32
0.0
 13
365.0344435099792
 23
179.5271186801773
 33
0.0
  0
MTEXT
  5
3BB
330
2FB
100
AcDbEntity
  8
Bemaßungen(TC_020513_DIN)
  6
Continuous
 62
     7
370
    25
100
AcDbMText
 10
356.2816467841947
 20
186.6362591985948
 30
0.0
 40
7.0
 41
0.0
 71
     1
 72
     1
  1
\A1;M32
  7
Aktuell-BSI
 11
0.0000000000000001
 21
1.0
 31
0.0
 73
     1
 44
1.0
1001
ACAD
1000
MTEXTBEGIN
1070
    73
1070
     1
1070
    44
1040
1.0
1070
    74
1070
     0
1000
MTEXTEND
  0
POINT
  5
3BC
330
2FB
100
AcDbEntity
  8
Defpoints
  6
Continuous
 62
     0
100
AcDbPoint
 10
345.0344435099791
 20
211.5271186801774
 30
0.0
  0
POINT
  5
3BD
330
2FB
100
AcDbEntity
  8
Defpoints
  6
Continuous
 62
     0
100
AcDbPoint
 10
345.0344435099791
 20
179.5271186801773
 30
0.0
  0
POINT
  5
3BE
330
2FB
100
AcDbEntity
  8
Defpoints
  6
Continuous
 62
     0
100
AcDbPoint
 10
365.0344435099792
 20
179.5271186801773
 30
0.0
  0
ENDBLK
  5
307
330
2FB
100
AcDbEntity
  8
0
100
AcDbBlockEnd
  0
BLOCK
  5
3D7
330
3CC
100
AcDbEntity
  8
0
100
AcDbBlockBegin
  2
*D12
 70
     1
 10
0.0
 20
0.0
 30
0.0
  3
*D12
  1

  0
LINE
  5
487
330
3CC
100
AcDbEntity
  8
Bemaßungen(TC_020513_DIN)
  6
Continuous
 62
     7
370
    25
100
AcDbLine
 10
339.5344435099791
 20
168.0271186801774
 30
0.0
 11
339.5344435099791
 21
146.0271186801774
 31
0.0
  0
LINE
  5
488
330
3CC
100
AcDbEntity
  8
Bemaßungen(TC_020513_DIN)
  6
Continuous
 62
     7
370
    25
100
AcDbLine
 10
207.5344435099791
 20
168.0271186801774
 30
0.0
 11
207.5344435099791
 21
146.0271186801774
 31
0.0
  0
LINE
  5
489
330
3CC
100
AcDbEntity
  8
Bemaßungen(TC_020513_DIN)
  6
Continuous
 62
     7
370
    25
100
AcDbLine
 10
334.5344435099792
 20
150.0271186801774
 30
0.0
 11
212.5344435099791
 21
150.0271186801774
 31
0.0
  0
SOLID
  5
48A
330
3CC
100
AcDbEntity
  8
Bemaßungen(TC_020513_DIN)
  6
Continuous
 62
     7
100
AcDbTrace
 10
334.5344435099792
 20
150.8604520135107
 30
0.0
 11
334.5344435099792
 21
149.193785346844
 31
0.0
 12
339.5344435099791
 22
150.0271186801774
 32
0.0
 13
339.5344435099791
 23
150.0271186801774
 33
0.0
  0
SOLID
  5
48B
330
3CC
100
AcDbEntity
  8
Bemaßungen(TC_020513_DIN)
  6
Continuous
 62
     7
100
AcDbTrace
 10
212.5344435099791
 20
150.8604520135107
 30
0.0
 11
212.5344435099791
 21
149.193785346844
 31
0.0
 12
207.5344435099791
 22
150.0271186801774
 32
0.0
 13
207.5344435099791
 23
150.0271186801774
 33
0.0
  0
MTEXT
  5
48C
330
3CC
100
AcDbEntity
  8
Bemaßungen(TC_020513_DIN)
  6
Continuous
 62
     7
370
    25
100
AcDbMText
 10
266.1667763885603
 20
158.7799154059618
 30
0.0
 40
7.0
 41
0.0
 71
     1
 72
     1
  1
\A1;132
  7
Aktuell-BSI
 73
     1
 44
1.0
1001
ACAD
1000
MTEXTBEGIN
1070
    73
1070
     1
1070
    44
1040
1.0
1070
    74
1070
     0
1000
MTEXTEND
  0
POINT
  5
48D
330
3CC
100
AcDbEntity
  8
Defpoints
  6
Continuous
 62
     0
100
AcDbPoint
 10
339.5344435099791
 20
170.0271186801774
 30
0.0
  0
POINT
  5
48E
330
3CC
100
AcDbEntity
  8
Defpoints
  6
Continuous
 62
     0
100
AcDbPoint
 10
207.5344435099791
 20
170.0271186801774
 30
0.0
  0
POINT
  5
48F
330
3CC
100
AcDbEntity
  8
Defpoints
  6
Continuous
 62
     0
100
AcDbPoint
 10
207.5344435099791
 20
150.0271186801774
 30
0.0
  0
ENDBLK
  5
3D8
330
3CC
100
AcDbEntity
  8
0
100
AcDbBlockEnd
  0
BLOCK
  5
49C
330
491
100
AcDbEntity
  8
0
100
AcDbBlockBegin
  2
*D13
 70
     1
 10
0.0
 20
0.0
 30
0.0
  3
*D13
  1

  0
LINE
  5
54C
330
491
100
AcDbEntity
  8
Bemaßungen(TC_020513_DIN)
  6
Continuous
 62
     7
370
    25
100
AcDbLine
 10
201.5344435099791
 20
194.1521186801774
 30
0.0
 11
201.5344435099791
 21
124.1521186801774
 31
0.0
  0
LINE
  5
54D
330
491
100
AcDbEntity
  8
Bemaßungen(TC_020513_DIN)
  6
Continuous
 62
     7
370
    25
100
AcDbLine
 10
345.5344435099791
 20
194.1521186801774
 30
0.0
 11
345.5344435099791
 21
124.1521186801774
 31
0.0
  0
LINE
  5
54E
330
491
100
AcDbEntity
  8
Bemaßungen(TC_020513_DIN)
  6
Continuous
 62
     7
370
    25
100
AcDbLine
 10
206.5344435099791
 20
128.1521186801773
 30
0.0
 11
340.5344435099792
 21
128.1521186801773
 31
0.0
  0
SOLID
  5
54F
330
491
100
AcDbEntity
  8
Bemaßungen(TC_020513_DIN)
  6
Continuous
 62
     7
100
AcDbTrace
 10
206.5344435099791
 20
128.9854520135107
 30
0.0
 11
206.5344435099791
 21
127.318785346844
 31
0.0
 12
201.5344435099791
 22
128.1521186801773
 32
0.0
 13
201.5344435099791
 23
128.1521186801773
 33
0.0
  0
SOLID
  5
550
330
491
100
AcDbEntity
  8
Bemaßungen(TC_020513_DIN)
  6
Continuous
 62
     7
100
AcDbTrace
 10
340.5344435099792
 20
128.9854520135107
 30
0.0
 11
340.5344435099792
 21
127.318785346844
 31
0.0
 12
345.5344435099791
 22
128.1521186801773
 32
0.0
 13
345.5344435099791
 23
128.1521186801773
 33
0.0
  0
MTEXT
  5
551
330
491
100
AcDbEntity
  8
Bemaßungen(TC_020513_DIN)
  6
Continuous
 62
     7
370
    25
100
AcDbMText
 10
266.1452893489968
 20
136.7807680662619
 30
0.0
 40
7.0
 41
0.0
 71
     1
 72
     1
  1
\A1;144
  7
Aktuell-BSI
 73
     1
 44
1.0
1001
ACAD
1000
MTEXTBEGIN
1070
    73
1070
     1
1070
    44
1040
1.0
1070
    74
1070
     0
1000
MTEXTEND
  0
POINT
  5
552
330
491
100
AcDbEntity
  8
Defpoints
  6
Continuous
 62
     0
100
AcDbPoint
 10
201.5344435099791
 20
196.1521186801774
 30
0.0
  0
POINT
  5
553
330
491
100
AcDbEntity
  8
Defpoints
  6
Continuous
 62
     0
100
AcDbPoint
 10
345.5344435099791
 20
196.1521186801774
 30
0.0
  0
POINT
  5
554
330
491
100
AcDbEntity
  8
Defpoints
  6
Continuous
 62
     0
100
AcDbPoint
 10
345.5344435099791
 20
128.1521186801773
 30
0.0
  0
ENDBLK
  5
49D
330
491
100
AcDbEntity
  8
0
100
AcDbBlockEnd
  0
BLOCK
  5
562
330
557
100
AcDbEntity
  8
0
100
AcDbBlockBegin
  2
*D14
 70
     1
 10
0.0
 20
0.0
 30
0.0
  3
*D14
  1

  0
LINE
  5
612
330
557
100
AcDbEntity
  8
Bemaßungen(TC_020513_DIN)
  6
Continuous
 62
     7
370
    25
100
AcDbLine
 10
420.8006920171921
 20
307.5271186801774
 30
0.0
 11
420.8006920171921
 21
341.5271186801774
 31
0.0
  0
LINE
  5
613
330
557
100
AcDbEntity
  8
Bemaßungen(TC_020513_DIN)
  6
Continuous
 62
     7
370
    25
100
AcDbLine
 10
496.8006920171982
 20
249.7771186801774
 30
0.0
 11
496.8006920171982
 21
341.5271186801774
 31
0.0
  0
LINE
  5
614
330
557
100
AcDbEntity
  8
Bemaßungen(TC_020513_DIN)
  6
Continuous
 62
     7
370
    25
100
AcDbLine
 10
425.800692017192
 20
337.5271186801774
 30
0.0
 11
491.8006920171982
 21
337.5271186801774
 31
0.0
  0
SOLID
  5
615
330
557
100
AcDbEntity
  8
Bemaßungen(TC_020513_DIN)
  6
Continuous
 62
     7
100
AcDbTrace
 10
425.800692017192
 20
338.3604520135107
 30
0.0
 11
425.800692017192
 21
336.6937853468441
 31
0.0
 12
420.8006920171921
 22
337.5271186801774
 32
0.0
 13
420.8006920171921
 23
337.5271186801774
 33
0.0
  0
SOLID
  5
616
330
557
100
AcDbEntity
  8
Bemaßungen(TC_020513_DIN)
  6
Continuous
 62
     7
100
AcDbTrace
 10
491.8006920171982
 20
338.3604520135107
 30
0.0
 11
491.8006920171982
 21
336.6937853468441
 31
0.0
 12
496.8006920171982
 22
337.5271186801774
 32
0.0
 13
496.8006920171982
 23
337.5271186801774
 33
0.0
  0
MTEXT
  5
617
330
557
100
AcDbEntity
  8
Bemaßungen(TC_020513_DIN)
  6
Continuous
 62
     7
370
    25
100
AcDbMText
 10
453.8180862873179
 20
346.2751405082811
 30
0.0
 40
7.0
 41
0.0
 71
     1
 72
     1
  1
\A1;76
  7
Aktuell-BSI
 73
     1
 44
1.0
1001
ACAD
1000
MTEXTBEGIN
1070
    73
1070
     1
1070
    44
1040
1.0
1070
    74
1070
     0
1000
MTEXTEND
  0
POINT
  5
618
330
557
100
AcDbEntity
  8
Defpoints
  6
Continuous
 62
     0
100
AcDbPoint
 10
420.8006920171921
 20
305.5271186801774
 30
0.0
  0
POINT
  5
619
330
557
100
AcDbEntity
  8
Defpoints
  6
Continuous
 62
     0
100
AcDbPoint
 10
496.8006920171982
 20
247.7771186801774
 30
0.0
  0
POINT
  5
61A
330
557
100
AcDbEntity
  8
Defpoints
  6
Continuous
 62
     0
100
AcDbPoint
 10
496.8006920171982
 20
337.5271186801774
 30
0.0
  0
ENDBLK
  5
563
330
557
100
AcDbEntity
  8
0
100
AcDbBlockEnd
  0
BLOCK
  5
627
330
61C
100
AcDbEntity
  8
0
100
AcDbBlockBegin
  2
*D15
 70
     1
 10
0.0
 20
0.0
 30
0.0
  3
*D15
  1

  0
LINE
  5
6D7
330
61C
100
AcDbEntity
  8
Bemaßungen(TC_020513_DIN)
  6
Continuous
 62
     7
370
    25
100
AcDbLine
 10
446.0506920171899
 20
168.0271186801774
 30
0.0
 11
446.0506920171899
 21
146.0271186801774
 31
0.0
  0
LINE
  5
6D8
330
61C
100
AcDbEntity
  8
Bemaßungen(TC_020513_DIN)
  6
Continuous
 62
     7
370
    25
100
AcDbLine
 10
491.0506920171899
 20
168.0271186801774
 30
0.0
 11
491.0506920171899
 21
146.0271186801774
 31
0.0
  0
LINE
  5
6D9
330
61C
100
AcDbEntity
  8
Bemaßungen(TC_020513_DIN)
  6
Continuous
 62
     7
370
    25
100
AcDbLine
 10
451.0506920171899
 20
150.0271186801774
 30
0.0
 11
486.0506920171899
 21
150.0271186801774
 31
0.0
  0
SOLID
  5
6DA
330
61C
100
AcDbEntity
  8
Bemaßungen(TC_020513_DIN)
  6
Continuous
 62
     7
100
AcDbTrace
 10
451.0506920171899
 20
150.8604520135107
 30
0.0
 11
451.0506920171899
 21
149.193785346844
 31
0.0
 12
446.0506920171899
 22
150.0271186801774
 32
0.0
 13
446.0506920171899
 23
150.0271186801774
 33
0.0
  0
SOLID
  5
6DB
330
61C
100
AcDbEntity
  8
Bemaßungen(TC_020513_DIN)
  6
Continuous
 62
     7
100
AcDbTrace
 10
486.0506920171899
 20
150.8604520135107
 30
0.0
 11
486.0506920171899
 21
149.193785346844
 31
0.0
 12
491.0506920171899
 22
150.0271186801774
 32
0.0
 13
491.0506920171899
 23
150.0271186801774
 33
0.0
  0
MTEXT
  5
6DC
330
61C
100
AcDbEntity
  8
Bemaßungen(TC_020513_DIN)
  6
Continuous
 62
     7
370
    25
100
AcDbMText
 10
463.3699280335609
 20
158.7464911221965
 30
0.0
 40
7.0
 41
0.0
 71
     1
 72
     1
  1
\A1;45
  7
Aktuell-BSI
 73
     1
 44
1.0
1001
ACAD
1000
MTEXTBEGIN
1070
    73
1070
     1
1070
    44
1040
1.0
1070
    74
1070
     0
1000
MTEXTEND
  0
POINT
  5
6DD
330
61C
100
AcDbEntity
  8
Defpoints
  6
Continuous
 62
     0
100
AcDbPoint
 10
446.0506920171899
 20
170.0271186801774
 30
0.0
  0
POINT
  5
6DE
330
61C
100
AcDbEntity
  8
Defpoints
  6
Continuous
 62
     0
100
AcDbPoint
 10
491.0506920171899
 20
170.0271186801774
 30
0.0
  0
POINT
  5
6DF
330
61C
100
AcDbEntity
  8
Defpoints
  6
Continuous
 62
     0
100
AcDbPoint
 10
491.0506920171899
 20
150.0271186801774
 30
0.0
  0
ENDBLK
  5
628
330
61C
100
AcDbEntity
  8
0
100
AcDbBlockEnd
  0
BLOCK
  5
6EC
330
6E1
100
AcDbEntity
  8
0
100
AcDbBlockBegin
  2
*D16
 70
     1
 10
0.0
 20
0.0
 30
0.0
  3
*D16
  1

  0
LINE
  5
79C
330
6E1
100
AcDbEntity
  8
Bemaßungen(TC_020513_DIN)
  6
Continuous
 62
     7
370
    25
100
AcDbLine
 10
440.0506920171883
 20
173.0271186801774
 30
0.0
 11
440.0506920171883
 21
124.1521186801774
 31
0.0
  0
LINE
  5
79D
330
6E1
100
AcDbEntity
  8
Bemaßungen(TC_020513_DIN)
  6
Continuous
 62
     7
370
    25
100
AcDbLine
 10
497.0506920171884
 20
173.0271186801774
 30
0.0
 11
497.0506920171884
 21
124.1521186801774
 31
0.0
  0
LINE
  5
79E
330
6E1
100
AcDbEntity
  8
Bemaßungen(TC_020513_DIN)
  6
Continuous
 62
     7
370
    25
100
AcDbLine
 10
445.0506920171883
 20
128.1521186801773
 30
0.0
 11
492.0506920171884
 21
128.1521186801773
 31
0.0
  0
SOLID
  5
79F
330
6E1
100
AcDbEntity
  8
Bemaßungen(TC_020513_DIN)
  6
Continuous
 62
     7
100
AcDbTrace
 10
445.0506920171883
 20
128.9854520135107
 30
0.0
 11
445.0506920171883
 21
127.318785346844
 31
0.0
 12
440.0506920171883
 22
128.1521186801773
 32
0.0
 13
440.0506920171883
 23
128.1521186801773
 33
0.0
  0
SOLID
  5
7A0
330
6E1
100
AcDbEntity
  8
Bemaßungen(TC_020513_DIN)
  6
Continuous
 62
     7
100
AcDbTrace
 10
492.0506920171884
 20
128.9854520135107
 30
0.0
 11
492.0506920171884
 21
127.318785346844
 31
0.0
 12
497.0506920171884
 22
128.1521186801773
 32
0.0
 13
497.0506920171884
 23
128.1521186801773
 33
0.0
  0
MTEXT
  5
7A1
330
6E1
100
AcDbEntity
  8
Bemaßungen(TC_020513_DIN)
  6
Continuous
 62
     7
370
    25
100
AcDbMText
 10
463.5370494523861
 20
136.8714911221964
 30
0.0
 40
7.0
 41
0.0
 71
     1
 72
     1
  1
\A1;57
  7
Aktuell-BSI
 73
     1
 44
1.0
1001
ACAD
1000
MTEXTBEGIN
1070
    73
1070
     1
1070
    44
1040
1.0
1070
    74
1070
     0
1000
MTEXTEND
  0
POINT
  5
7A2
330
6E1
100
AcDbEntity
  8
Defpoints
  6
Continuous
 62
     0
100
AcDbPoint
 10
440.0506920171883
 20
175.0271186801774
 30
0.0
  0
POINT
  5
7A3
330
6E1
100
AcDbEntity
  8
Defpoints
  6
Continuous
 62
     0
100
AcDbPoint
 10
497.0506920171884
 20
175.0271186801774
 30
0.0
  0
POINT
  5
7A4
330
6E1
100
AcDbEntity
  8
Defpoints
  6
Continuous
 62
     0
100
AcDbPoint
 10
497.0506920171884
 20
128.1521186801773
 30
0.0
  0
ENDBLK
  5
6ED
330
6E1
100
AcDbEntity
  8
0
100
AcDbBlockEnd
  0
BLOCK
  5
7B1
330
7A6
100
AcDbEntity
  8
0
100
AcDbBlockBegin
  2
*D17
 70
     1
 10
0.0
 20
0.0
 30
0.0
  3
*D17
  1

  0
LINE
  5
879
330
7A6
100
AcDbEntity
  8
Bemaßungen(TC_020513_DIN)
  6
Continuous
 62
     7
370
    25
100
AcDbLine
 10
498.0506920171881
 20
175.0271186801774
 30
0.0
 11
520.0506920171881
 21
175.0271186801774
 31
0.0
  0
LINE
  5
87A
330
7A6
100
AcDbEntity
  8
Bemaßungen(TC_020513_DIN)
  6
Continuous
 62
     7
370
    25
100
AcDbLine
 10
487.5722550992636
 20
179.0271186801774
 30
0.0
 11
520.0506920171881
 21
179.0271186801774
 31
0.0
  0
LINE
  5
87B
330
7A6
100
AcDbEntity
  8
Bemaßungen(TC_020513_DIN)
  6
Continuous
 62
     7
370
    25
100
AcDbLine
 10
516.0506920171881
 20
170.0271186801774
 30
0.0
 11
516.0506920171881
 21
165.0271186801774
 31
0.0
  0
LINE
  5
87C
330
7A6
100
AcDbEntity
  8
Bemaßungen(TC_020513_DIN)
  6
Continuous
 62
     7
370
    25
100
AcDbLine
 10
516.0506920171881
 20
184.0271186801774
 30
0.0
 11
516.0506920171881
 21
189.0271186801774
 31
0.0
  0
LINE
  5
87D
330
7A6
100
AcDbEntity
  8
Bemaßungen(TC_020513_DIN)
  6
Continuous
 62
     7
370
    25
100
AcDbLine
 10
516.0506920171881
 20
175.0271186801774
 30
0.0
 11
516.0506920171881
 21
179.0271186801774
 31
0.0
  0
SOLID
  5
87E
330
7A6
100
AcDbEntity
  8
Bemaßungen(TC_020513_DIN)
  6
Continuous
 62
     7
100
AcDbTrace
 10
515.2173586838547
 20
170.0271186801774
 30
0.0
 11
516.8840253505215
 21
170.0271186801774
 31
0.0
 12
516.0506920171881
 22
175.0271186801774
 32
0.0
 13
516.0506920171881
 23
175.0271186801774
 33
0.0
  0
SOLID
  5
87F
330
7A6
100
AcDbEntity
  8
Bemaßungen(TC_020513_DIN)
  6
Continuous
 62
     7
100
AcDbTrace
 10
515.2173586838547
 20
184.0271186801774
 30
0.0
 11
516.8840253505215
 21
184.0271186801774
 31
0.0
 12
516.0506920171881
 22
179.0271186801774
 32
0.0
 13
516.0506920171881
 23
179.0271186801774
 33
0.0
  0
MTEXT
  5
880
330
7A6
100
AcDbEntity
  8
Bemaßungen(TC_020513_DIN)
  6
Continuous
 62
     7
370
    25
100
AcDbMText
 10
507.4506920171881
 20
174.6062455560301
 30
0.0
 40
7.0
 41
0.0
 71
     1
 72
     1
  1
\A1;4
  7
Aktuell-BSI
 11
0.0000000000000001
 21
1.0
 31
0.0
 73
     1
 44
1.0
1001
ACAD
1000
MTEXTBEGIN
1070
    73
1070
     1
1070
    44
1040
1.0
1070
    74
1070
     0
1000
MTEXTEND
  0
POINT
  5
881
330
7A6
100
AcDbEntity
  8
Defpoints
  6
Continuous
 62
     0
100
AcDbPoint
 10
496.0506920171881
 20
175.0271186801774
 30
0.0
  0
POINT
  5
882
330
7A6
100
AcDbEntity
  8
Defpoints
  6
Continuous
 62
     0
100
AcDbPoint
 10
485.5722550992636
 20
179.0271186801774
 30
0.0
  0
POINT
  5
883
330
7A6
100
AcDbEntity
  8
Defpoints
  6
Continuous
 62
     0
100
AcDbPoint
 10
516.0506920171881
 20
179.0271186801774
 30
0.0
  0
ENDBLK
  5
7B2
330
7A6
100
AcDbEntity
  8
0
100
AcDbBlockEnd
  0
BLOCK
  5
890
330
885
100
AcDbEntity
  8
0
100
AcDbBlockBegin
  2
*D18
 70
     1
 10
0.0
 20
0.0
 30
0.0
  3
*D18
  1

  0
LINE
  5
940
330
885
100
AcDbEntity
  8
Bemaßungen(TC_020513_DIN)
  6
Continuous
 62
     7
370
    25
100
AcDbLine
 10
486.5506920171914
 20
255.0271186801774
 30
0.0
 11
556.0506920171881
 21
255.0271186801774
 31
0.0
  0
LINE
  5
941
330
885
100
AcDbEntity
  8
Bemaßungen(TC_020513_DIN)
  6
Continuous
 62
     7
370
    25
100
AcDbLine
 10
498.0506920171881
 20
175.0271186801774
 30
0.0
 11
556.0506920171881
 21
175.0271186801774
 31
0.0
  0
LINE
  5
942
330
885
100
AcDbEntity
  8
Bemaßungen(TC_020513_DIN)
  6
Continuous
 62
     7
370
    25
100
AcDbLine
 10
552.0506920171881
 20
250.0271186801774
 30
0.0
 11
552.0506920171881
 21
180.0271186801774
 31
0.0
  0
SOLID
  5
943
330
885
100
AcDbEntity
  8
Bemaßungen(TC_020513_DIN)
  6
Continuous
 62
     7
100
AcDbTrace
 10
551.2173586838547
 20
250.0271186801774
 30
0.0
 11
552.8840253505214
 21
250.0271186801774
 31
0.0
 12
552.0506920171881
 22
255.0271186801774
 32
0.0
 13
552.0506920171881
 23
255.0271186801774
 33
0.0
  0
SOLID
  5
944
330
885
100
AcDbEntity
  8
Bemaßungen(TC_020513_DIN)
  6
Continuous
 62
     7
100
AcDbTrace
 10
551.2173586838547
 20
180.0271186801774
 30
0.0
 11
552.8840253505214
 21
180.0271186801774
 31
0.0
 12
552.0506920171881
 22
175.0271186801774
 32
0.0
 13
552.0506920171881
 23
175.0271186801774
 33
0.0
  0
MTEXT
  5
945
330
885
100
AcDbEntity
  8
Bemaßungen(TC_020513_DIN)
  6
Continuous
 62
     7
370
    25
100
AcDbMText
 10
543.3026701890844
 20
210.0206384618964
 30
0.0
 40
7.0
 41
0.0
 71
     1
 72
     1
  1
\A1;80
  7
Aktuell-BSI
 11
0.0000000000000001
 21
1.0
 31
0.0
 73
     1
 44
1.0
1001
ACAD
1000
MTEXTBEGIN
1070
    73
1070
     1
1070
    44
1040
1.0
1070
    74
1070
     0
1000
MTEXTEND
  0
POINT
  5
946
330
885
100
AcDbEntity
  8
Defpoints
  6
Continuous
 62
     0
100
AcDbPoint
 10
484.5506920171914
 20
255.0271186801774
 30
0.0
  0
POINT
  5
947
330
885
100
AcDbEntity
  8
Defpoints
  6
Continuous
 62
     0
100
AcDbPoint
 10
496.0506920171881
 20
175.0271186801774
 30
0.0
  0
POINT
  5
948
330
885
100
AcDbEntity
  8
Defpoints
  6
Continuous
 62
     0
100
AcDbPoint
 10
552.0506920171881
 20
175.0271186801774
 30
0.0
  0
ENDBLK
  5
891
330
885
100
AcDbEntity
  8
0
100
AcDbBlockEnd
  0
ENDSEC
  0
SECTION
  2
ENTITIES
  0
INSERT
  5
153
330
37
100
AcDbEntity
  8
0
100
AcDbBlockReference
  2
Ränder Ilme Rahmen A4 quer
 10
0.0
 20
0.0
 30
0.0
 41
2.0
 42
2.0
 43
2.0
  0
INSERT
  5
1C7
330
37
100
AcDbEntity
  8
0
100
AcDbBlockReference
 66
     1
  2
Schriftfelder Ilme
 10
174.039620099394
 20
-0.0012801852524968
 30
0.0
 41
2.0
 42
2.0
 43
2.0
  0
ATTRIB
  5
1C9
330
1C7
100
AcDbEntity
  8
Symbole(ISO)
 62
     7
100
AcDbText
 10
276.0000000000001
 20
23.49999994039527
 30
0.0
 40
8.000000119209289
  1
surface mount.h.pegs and cover M32 ins.
  7
Kopie von TC 5 mm
 11
276.0000000000001
 21
27.49999999999991
 31
0.0
100
AcDbAttribute
  2
BEZEICHNUNG
 70
     0
 74
     2
  0
ATTRIB
  5
1CA
330
1C7
100
AcDbEntity
  8
Symbole(ISO)
 62
     7
100
AcDbText
 10
502.6109142833485
 20
24.99999999999991
 30
0.0
 40
10.0
  1
1:2
 41
0.899999976158142
  7
TC 5 mm
 72
     1
 11
511.35
 21
29.99999999999991
 31
0.0
100
AcDbAttribute
  2
FirstViewScale
 70
     0
 74
     2
  0
ATTRIB
  5
1CB
330
1C7
100
AcDbEntity
  8
Symbole(ISO)
 62
     7
100
AcDbText
 10
276.0000000000001
 20
38.49999994039527
 30
0.0
 40
8.000000119209289
  1
MMAP 16 CS32
 41
1.199999928474426
  7
Kopie von TC 5 mm
 11
276.0000000000001
 21
42.49999999999992
 31
0.0
100
AcDbAttribute
  2
BAUTEILNUMMER
 70
     0
 74
     2
  0
SEQEND
  5
1C8
330
1C7
100
AcDbEntity
  8
0
  0
LINE
  5
1CC
330
37
100
AcDbEntity
  8
Sichtbare Kanten(TC_020513_DIN)
100
AcDbLine
 10
224.4937356535002
 20
179.0271186801774
 30
0.0
 11
223.9937356535001
 21
179.0271186801774
 31
0.0
  0
LINE
  5
1CD
330
37
100
AcDbEntity
  8
Sichtbare Kanten(TC_020513_DIN)
100
AcDbLine
 10
223.9937356535001
 20
175.5271186801774
 30
0.0
 11
224.4937356535002
 21
175.5271186801774
 31
0.0
  0
LINE
  5
1CE
330
37
100
AcDbEntity
  8
Sichtbare Kanten(TC_020513_DIN)
100
AcDbLine
 10
323.075151366458
 20
179.0271186801774
 30
0.0
 11
322.575151366458
 21
179.0271186801774
 31
0.0
  0
LINE
  5
1CF
330
37
100
AcDbEntity
  8
Sichtbare Kanten(TC_020513_DIN)
100
AcDbLine
 10
322.575151366458
 20
175.5271186801774
 30
0.0
 11
323.075151366458
 21
175.5271186801774
 31
0.0
  0
LINE
  5
1D0
330
37
100
AcDbEntity
  8
Sichtbare Kanten(TC_020513_DIN)
100
AcDbLine
 10
344.5344435099792
 20
179.0271186801774
 30
0.0
 11
345.5344435099791
 21
179.0271186801774
 31
0.0
  0
LINE
  5
1D1
330
37
100
AcDbEntity
  8
Sichtbare Kanten(TC_020513_DIN)
100
AcDbLine
 10
345.5344435099791
 20
175.0271186801773
 30
0.0
 11
344.5344435099792
 21
175.0271186801773
 31
0.0
  0
LINE
  5
1D2
330
37
100
AcDbEntity
  8
Sichtbare Kanten(TC_020513_DIN)
100
AcDbLine
 10
334.3023927024102
 20
179.0271186801774
 30
0.0
 11
334.8023927024102
 21
179.0271186801774
 31
0.0
  0
LINE
  5
1D3
330
37
100
AcDbEntity
  8
Sichtbare Kanten(TC_020513_DIN)
100
AcDbLine
 10
334.534443509979
 20
175.5271186801774
 30
0.0
 11
334.3023927024102
 21
175.5271186801774
 31
0.0
  0
LINE
  5
1D4
330
37
100
AcDbEntity
  8
Sichtbare Kanten(TC_020513_DIN)
100
AcDbLine
 10
212.766494317548
 20
175.5271186801774
 30
0.0
 11
212.5344435099791
 21
175.5271186801774
 31
0.0
  0
LINE
  5
1D5
330
37
100
AcDbEntity
  8
Sichtbare Kanten(TC_020513_DIN)
100
AcDbLine
 10
334.5344435099792
 20
175.5271186801774
 30
0.0
 11
334.5344435099792
 21
175.0271186801774
 31
0.0
  0
LINE
  5
1D6
330
37
100
AcDbEntity
  8
Sichtbare Kanten(TC_020513_DIN)
100
AcDbLine
 10
334.8023927024102
 20
175.0271186801773
 30
0.0
 11
334.534443509979
 21
175.0271186801773
 31
0.0
  0
LINE
  5
1D7
330
37
100
AcDbEntity
  8
Sichtbare Kanten(TC_020513_DIN)
100
AcDbLine
 10
201.5344435099791
 20
179.0271186801774
 30
0.0
 11
202.5344435099791
 21
179.0271186801774
 31
0.0
  0
LINE
  5
1D8
330
37
100
AcDbEntity
  8
Sichtbare Kanten(TC_020513_DIN)
100
AcDbLine
 10
202.5344435099791
 20
175.0271186801773
 30
0.0
 11
201.5344435099791
 21
175.0271186801773
 31
0.0
  0
LINE
  5
1D9
330
37
100
AcDbEntity
  8
Sichtbare Kanten(TC_020513_DIN)
100
AcDbLine
 10
212.5344435099791
 20
175.0271186801773
 30
0.0
 11
212.266494317548
 21
175.0271186801773
 31
0.0
  0
LINE
  5
1DA
330
37
100
AcDbEntity
  8
Sichtbare Kanten(TC_020513_DIN)
100
AcDbLine
 10
212.5344435099791
 20
175.0271186801774
 30
0.0
 11
212.5344435099791
 21
175.5271186801774
 31
0.0
  0
LINE
  5
1DB
330
37
100
AcDbEntity
  8
Sichtbare Kanten(TC_020513_DIN)
100
AcDbLine
 10
212.266494317548
 20
179.0271186801774
 30
0.0
 11
212.766494317548
 21
179.0271186801774
 31
0.0
  0
LINE
  5
1DC
330
37
100
AcDbEntity
  8
Sichtbare Kanten(TC_020513_DIN)
100
AcDbLine
 10
223.9937356535001
 20
179.0271186801774
 30
0.0
 11
212.766494317548
 21
179.0271186801774
 31
0.0
  0
LINE
  5
1DD
330
37
100
AcDbEntity
  8
Sichtbare Kanten(TC_020513_DIN)
100
AcDbLine
 10
212.766494317548
 20
175.5271186801774
 30
0.0
 11
223.9937356535001
 21
175.5271186801774
 31
0.0
  0
LINE
  5
1DE
330
37
100
AcDbEntity
  8
Sichtbare Kanten(TC_020513_DIN)
100
AcDbLine
 10
323.075151366458
 20
179.0271186801774
 30
0.0
 11
334.3023927024102
 21
179.0271186801774
 31
0.0
  0
LINE
  5
1DF
330
37
100
AcDbEntity
  8
Sichtbare Kanten(TC_020513_DIN)
100
AcDbLine
 10
334.3023927024102
 20
175.5271186801774
 30
0.0
 11
323.075151366458
 21
175.5271186801774
 31
0.0
  0
LINE
  5
1E0
330
37
100
AcDbEntity
  8
Sichtbare Kanten(TC_020513_DIN)
100
AcDbLine
 10
322.575151366458
 20
175.5271186801774
 30
0.0
 11
224.4937356535002
 21
175.5271186801774
 31
0.0
  0
CIRCLE
  5
1E1
330
37
100
AcDbEntity
  8
Sichtbare Kanten(TC_020513_DIN)
100
AcDbCircle
 10
311.5344435099791
 20
245.5271186801774
 30
0.0
 40
4.000000000000012
  0
CIRCLE
  5
1E2
330
37
100
AcDbEntity
  8
Sichtbare Kanten(TC_020513_DIN)
100
AcDbCircle
 10
311.5344435099791
 20
245.5271186801774
 30
0.0
 40
2.499999999999997
  0
CIRCLE
  5
1E3
330
37
100
AcDbEntity
  8
Sichtbare Kanten(TC_020513_DIN)
100
AcDbCircle
 10
311.5344435099791
 20
245.5271186801774
 30
0.0
 40
2.250000000000003
  0
CIRCLE
  5
1E4
330
37
100
AcDbEntity
  8
Sichtbare Kanten(TC_020513_DIN)
100
AcDbCircle
 10
235.5344435099791
 20
245.5271186801774
 30
0.0
 40
4.000000000000012
  0
CIRCLE
  5
1E5
330
37
100
AcDbEntity
  8
Sichtbare Kanten(TC_020513_DIN)
100
AcDbCircle
 10
235.5344435099791
 20
245.5271186801774
 30
0.0
 40
2.499999999999997
  0
CIRCLE
  5
1E6
330
37
100
AcDbEntity
  8
Sichtbare Kanten(TC_020513_DIN)
100
AcDbCircle
 10
235.5344435099791
 20
245.5271186801774
 30
0.0
 40
2.250000000000003
  0
LINE
  5
1E7
330
37
100
AcDbEntity
  8
Sichtbare Kanten(TC_020513_DIN)
100
AcDbLine
 10
273.5344435099791
 20
232.4021186801774
 30
0.0
 11
263.7844435099791
 21
238.0271186801774
 31
0.0
  0
LINE
  5
1E8
330
37
100
AcDbEntity
  8
Sichtbare Kanten(TC_020513_DIN)
100
AcDbLine
 10
263.7844435099791
 20
238.0271186801774
 30
0.0
 11
273.5344435099791
 21
243.6521186801774
 31
0.0
  0
LINE
  5
1E9
330
37
100
AcDbEntity
  8
Sichtbare Kanten(TC_020513_DIN)
100
AcDbLine
 10
273.5344435099791
 20
243.6521186801774
 30
0.0
 11
283.2844435099791
 21
238.0271186801774
 31
0.0
  0
LINE
  5
1EA
330
37
100
AcDbEntity
  8
Sichtbare Kanten(TC_020513_DIN)
100
AcDbLine
 10
283.2844435099791
 20
238.0271186801774
 30
0.0
 11
273.5344435099791
 21
232.4021186801774
 31
0.0
  0
LINE
  5
1EB
330
37
100
AcDbEntity
  8
Sichtbare Kanten(TC_020513_DIN)
100
AcDbLine
 10
276.1594435099791
 20
235.4316857876604
 30
0.0
 11
276.1594435099791
 21
240.6225515726944
 31
0.0
  0
ARC
  5
1EC
330
37
100
AcDbEntity
  8
Sichtbare Kanten(TC_020513_DIN)
100
AcDbCircle
 10
276.5344435099791
 20
240.6225515726944
 30
0.0
 40
0.3749999999999976
100
AcDbArc
 50
60.0183606311476
 51
180.0
  0
LINE
  5
1ED
330
37
100
AcDbEntity
  8
Sichtbare Kanten(TC_020513_DIN)
100
AcDbLine
 10
276.7218394300377
 20
240.9473711674626
 30
0.0
 11
278.9718394300377
 21
239.6492942443857
 31
0.0
  0
ARC
  5
1EE
330
37
100
AcDbEntity
  8
Sichtbare Kanten(TC_020513_DIN)
100
AcDbCircle
 10
278.7844435099791
 20
239.3244746496175
 30
0.0
 40
0.3749999999999993
100
AcDbArc
 50
240.0183606311523
 51
60.01836063115228
  0
LINE
  5
1EF
330
37
100
AcDbEntity
  8
Sichtbare Kanten(TC_020513_DIN)
100
AcDbLine
 10
278.5970475899205
 20
238.9996550548492
 30
0.0
 11
276.9094435099791
 21
239.973272793277
 31
0.0
  0
LINE
  5
1F0
330
37
100
AcDbEntity
  8
Sichtbare Kanten(TC_020513_DIN)
100
AcDbLine
 10
276.9094435099791
 20
239.973272793277
 30
0.0
 11
276.9094435099791
 21
238.4021186801774
 31
0.0
  0
LINE
  5
1F1
330
37
100
AcDbEntity
  8
Sichtbare Kanten(TC_020513_DIN)
100
AcDbLine
 10
276.9094435099791
 20
238.4021186801774
 30
0.0
 11
278.7844435099791
 21
238.4021186801774
 31
0.0
  0
ARC
  5
1F2
330
37
100
AcDbEntity
  8
Sichtbare Kanten(TC_020513_DIN)
100
AcDbCircle
 10
278.7844435099791
 20
238.0271186801774
 30
0.0
 40
0.3750000000000009
100
AcDbArc
 50
270.0
 51
90.0
  0
LINE
  5
1F3
330
37
100
AcDbEntity
  8
Sichtbare Kanten(TC_020513_DIN)
100
AcDbLine
 10
278.7844435099791
 20
237.6521186801774
 30
0.0
 11
276.9094435099791
 21
237.6521186801774
 31
0.0
  0
LINE
  5
1F4
330
37
100
AcDbEntity
  8
Sichtbare Kanten(TC_020513_DIN)
100
AcDbLine
 10
276.9094435099791
 20
237.6521186801774
 30
0.0
 11
276.9094435099791
 21
236.0809645670778
 31
0.0
  0
LINE
  5
1F5
330
37
100
AcDbEntity
  8
Sichtbare Kanten(TC_020513_DIN)
100
AcDbLine
 10
276.9094435099791
 20
236.0809645670778
 30
0.0
 11
278.5970475899205
 21
237.0545823055056
 31
0.0
  0
ARC
  5
1F6
330
37
100
AcDbEntity
  8
Sichtbare Kanten(TC_020513_DIN)
100
AcDbCircle
 10
278.7844435099791
 20
236.7297627107373
 30
0.0
 40
0.3750000000000007
100
AcDbArc
 50
299.9816393688477
 51
119.9816393688477
  0
LINE
  5
1F7
330
37
100
AcDbEntity
  8
Sichtbare Kanten(TC_020513_DIN)
100
AcDbLine
 10
278.9718394300377
 20
236.4049431159691
 30
0.0
 11
276.7218394300377
 21
235.1068661928922
 31
0.0
  0
ARC
  5
1F8
330
37
100
AcDbEntity
  8
Sichtbare Kanten(TC_020513_DIN)
100
AcDbCircle
 10
276.5344435099791
 20
235.4316857876604
 30
0.0
 40
0.375
100
AcDbArc
 50
180.0
 51
299.9816393688477
  0
ARC
  5
1F9
330
37
100
AcDbEntity
  8
Sichtbare Kanten(TC_020513_DIN)
100
AcDbCircle
 10
268.9594435099791
 20
239.7138977265405
 30
0.0
 40
0.3749999999999998
100
AcDbArc
 50
0.0
 51
180.0
  0
LINE
  5
1FA
330
37
100
AcDbEntity
  8
Sichtbare Kanten(TC_020513_DIN)
100
AcDbLine
 10
269.3344435099791
 20
239.7138977265405
 30
0.0
 11
269.3344435099791
 21
236.3403396338142
 31
0.0
  0
ARC
  5
1FB
330
37
100
AcDbEntity
  8
Sichtbare Kanten(TC_020513_DIN)
100
AcDbCircle
 10
268.9594435099791
 20
236.3403396338142
 30
0.0
 40
0.3749999999999998
100
AcDbArc
 50
180.0
 51
0.0
  0
LINE
  5
1FC
330
37
100
AcDbEntity
  8
Sichtbare Kanten(TC_020513_DIN)
100
AcDbLine
 10
268.5844435099791
 20
236.3403396338142
 30
0.0
 11
268.5844435099791
 21
239.7138977265405
 31
0.0
  0
LINE
  5
1FD
330
37
100
AcDbEntity
  8
Sichtbare Kanten(TC_020513_DIN)
100
AcDbLine
 10
264.5348600609693
 20
238.0271186801774
 30
0.0
 11
273.5344435099791
 21
232.8350513057487
 31
0.0
  0
LINE
  5
1FE
330
37
100
AcDbEntity
  8
Sichtbare Kanten(TC_020513_DIN)
100
AcDbLine
 10
273.5344435099791
 20
232.8350513057487
 30
0.0
 11
282.5340269589889
 21
238.0271186801774
 31
0.0
  0
LINE
  5
1FF
330
37
100
AcDbEntity
  8
Sichtbare Kanten(TC_020513_DIN)
100
AcDbLine
 10
282.5340269589889
 20
238.0271186801774
 30
0.0
 11
273.5344435099791
 21
243.2191860546061
 31
0.0
  0
LINE
  5
200
330
37
100
AcDbEntity
  8
Sichtbare Kanten(TC_020513_DIN)
100
AcDbLine
 10
273.5344435099791
 20
243.2191860546061
 30
0.0
 11
264.5348600609693
 21
238.0271186801774
 31
0.0
  0
LINE
  5
201
330
37
100
AcDbEntity
  8
Sichtbare Kanten(TC_020513_DIN)
100
AcDbLine
 10
270.0844435099791
 20
235.4749550184296
 30
0.0
 11
270.0844435099791
 21
240.5792823419252
 31
0.0
  0
ARC
  5
202
330
37
100
AcDbEntity
  8
Sichtbare Kanten(TC_020513_DIN)
100
AcDbCircle
 10
270.4594435099791
 20
240.5792823419252
 30
0.0
 40
0.3749999999999998
100
AcDbArc
 50
0.0
 51
180.0
  0
LINE
  5
203
330
37
100
AcDbEntity
  8
Sichtbare Kanten(TC_020513_DIN)
100
AcDbLine
 10
270.8344435099791
 20
240.5792823419252
 30
0.0
 11
270.8344435099791
 21
235.6915414901548
 31
0.0
  0
LINE
  5
204
330
37
100
AcDbEntity
  8
Sichtbare Kanten(TC_020513_DIN)
100
AcDbLine
 10
270.8344435099791
 20
235.6915414901548
 30
0.0
 11
273.7218394300377
 21
234.0257361516594
 31
0.0
  0
ARC
  5
205
330
37
100
AcDbEntity
  8
Sichtbare Kanten(TC_020513_DIN)
100
AcDbCircle
 10
273.5344435099791
 20
233.7009165568912
 30
0.0
 40
0.375
100
AcDbArc
 50
240.0183606311523
 51
60.01836063115228
  0
LINE
  5
206
330
37
100
AcDbEntity
  8
Sichtbare Kanten(TC_020513_DIN)
100
AcDbLine
 10
273.3470475899205
 20
233.3760969621229
 30
0.0
 11
270.2720475899205
 21
235.1501354236614
 31
0.0
  0
ARC
  5
207
330
37
100
AcDbEntity
  8
Sichtbare Kanten(TC_020513_DIN)
100
AcDbCircle
 10
270.4594435099791
 20
235.4749550184296
 30
0.0
 40
0.3750000000000018
100
AcDbArc
 50
180.0
 51
240.0183606311523
  0
LINE
  5
208
330
37
100
AcDbEntity
  8
Sichtbare Kanten(TC_020513_DIN)
100
AcDbLine
 10
274.6594435099791
 20
240.3306984938635
 30
0.0
 11
273.5344435099791
 21
238.7771186801774
 31
0.0
  0
LINE
  5
209
330
37
100
AcDbEntity
  8
Sichtbare Kanten(TC_020513_DIN)
100
AcDbLine
 10
273.5344435099791
 20
238.7771186801774
 30
0.0
 11
272.4094435099791
 21
240.3306984938635
 31
0.0
  0
LINE
  5
20A
330
37
100
AcDbEntity
  8
Sichtbare Kanten(TC_020513_DIN)
100
AcDbLine
 10
272.4094435099791
 20
240.3306984938635
 30
0.0
 11
272.4094435099791
 21
236.3403396338142
 31
0.0
  0
ARC
  5
20B
330
37
100
AcDbEntity
  8
Sichtbare Kanten(TC_020513_DIN)
100
AcDbCircle
 10
272.0344435099792
 20
236.3403396338142
 30
0.0
 40
0.3749999999999987
100
AcDbArc
 50
180.0
 51
0.0
  0
LINE
  5
20C
330
37
100
AcDbEntity
  8
Sichtbare Kanten(TC_020513_DIN)
100
AcDbLine
 10
271.6594435099791
 20
236.3403396338142
 30
0.0
 11
271.6594435099791
 21
241.487936188079
 31
0.0
  0
ARC
  5
20D
330
37
100
AcDbEntity
  8
Sichtbare Kanten(TC_020513_DIN)
100
AcDbCircle
 10
272.0344435099792
 20
241.487936188079
 30
0.0
 40
0.3749999999999995
100
AcDbArc
 50
35.90957617702965
 51
180.0
  0
LINE
  5
20E
330
37
100
AcDbEntity
  8
Sichtbare Kanten(TC_020513_DIN)
100
AcDbLine
 10
272.3381723694697
 20
241.7078765888983
 30
0.0
 11
273.5344435099791
 21
240.0558741928177
 31
0.0
  0
LINE
  5
20F
330
37
100
AcDbEntity
  8
Sichtbare Kanten(TC_020513_DIN)
100
AcDbLine
 10
273.5344435099791
 20
240.0558741928177
 30
0.0
 11
274.7307146504886
 21
241.7078765888983
 31
0.0
  0
ARC
  5
210
330
37
100
AcDbEntity
  8
Sichtbare Kanten(TC_020513_DIN)
100
AcDbCircle
 10
275.0344435099791
 20
241.487936188079
 30
0.0
 40
0.3750000000000002
100
AcDbArc
 50
0.0
 51
144.0904238229703
  0
LINE
  5
211
330
37
100
AcDbEntity
  8
Sichtbare Kanten(TC_020513_DIN)
100
AcDbLine
 10
275.4094435099791
 20
241.487936188079
 30
0.0
 11
275.4094435099791
 21
234.5663011722757
 31
0.0
  0
ARC
  5
212
330
37
100
AcDbEntity
  8
Sichtbare Kanten(TC_020513_DIN)
100
AcDbCircle
 10
275.0344435099791
 20
234.5663011722757
 30
0.0
 40
0.375
100
AcDbArc
 50
180.0
 51
0.0
  0
LINE
  5
213
330
37
100
AcDbEntity
  8
Sichtbare Kanten(TC_020513_DIN)
100
AcDbLine
 10
274.6594435099791
 20
234.5663011722757
 30
0.0
 11
274.6594435099791
 21
240.3306984938635
 31
0.0
  0
LINE
  5
214
330
37
100
AcDbEntity
  8
Sichtbare Kanten(TC_020513_DIN)
100
AcDbLine
 10
345.5344435099791
 20
175.0271186801774
 30
0.0
 11
345.5344435099791
 21
179.0271186801774
 31
0.0
  0
LINE
  5
215
330
37
100
AcDbEntity
  8
Sichtbare Kanten(TC_020513_DIN)
100
AcDbLine
 10
345.5344435099791
 20
213.2771186801774
 30
0.0
 11
345.5344435099791
 21
179.0271186801774
 31
0.0
  0
POLYLINE
  5
216
330
37
100
AcDbEntity
  8
Sichtbare Kanten(TC_020513_DIN)
100
AcDb2dPolyline
 66
     1
 10
0.0
 20
0.0
 30
0.0
 70
   128
  0
VERTEX
  5
217
330
216
100
AcDbEntity
  8
Sichtbare Kanten(TC_020513_DIN)
100
AcDbVertex
100
AcDb2dVertex
 10
334.0344454173277
 20
187.3417658779007
 30
0.0
  0
VERTEX
  5
218
330
216
100
AcDbEntity
  8
Sichtbare Kanten(TC_020513_DIN)
100
AcDbVertex
100
AcDb2dVertex
 10
334.0263010386656
 20
187.9739375087601
 30
0.0
  0
VERTEX
  5
21A
330
216
100
AcDbEntity
  8
Sichtbare Kanten(TC_020513_DIN)
100
AcDbVertex
100
AcDb2dVertex
 10
334.0041471842955
 20
188.6240572902543
 30
0.0
  0
VERTEX
  5
21B
330
216
100
AcDbEntity
  8
Sichtbare Kanten(TC_020513_DIN)
100
AcDbVertex
100
AcDb2dVertex
 10
333.9713932398985
 20
189.2895789119584
 30
0.0
  0
VERTEX
  5
21C
330
216
100
AcDbEntity
  8
Sichtbare Kanten(TC_020513_DIN)
100
AcDbVertex
100
AcDb2dVertex
 10
333.931458127899
 20
189.9679489108903
 30
0.0
  0
VERTEX
  5
21D
330
216
100
AcDbEntity
  8
Sichtbare Kanten(TC_020513_DIN)
100
AcDbVertex
100
AcDb2dVertex
 10
333.8877655390929
 20
190.6566424342972
 30
0.0
  0
VERTEX
  5
21E
330
216
100
AcDbEntity
  8
Sichtbare Kanten(TC_020513_DIN)
100
AcDbVertex
100
AcDb2dVertex
 10
333.8435150508116
 20
191.3531537029129
 30
0.0
  0
VERTEX
  5
21F
330
216
100
AcDbEntity
  8
Sichtbare Kanten(TC_020513_DIN)
100
AcDbVertex
100
AcDb2dVertex
 10
333.801276815338
 20
192.0545477840287
 30
0.0
  0
VERTEX
  5
220
330
216
100
AcDbEntity
  8
Sichtbare Kanten(TC_020513_DIN)
100
AcDbVertex
100
AcDb2dVertex
 10
333.7635303858946
 20
192.7578110668046
 30
0.0
  0
VERTEX
  5
221
330
216
100
AcDbEntity
  8
Sichtbare Kanten(TC_020513_DIN)
100
AcDbVertex
100
AcDb2dVertex
 10
333.7326742533873
 20
193.4599251720292
 30
0.0
  0
VERTEX
  5
222
330
216
100
AcDbEntity
  8
Sichtbare Kanten(TC_020513_DIN)
100
AcDbVertex
100
AcDb2dVertex
 10
333.7100149516295
 20
194.1577048274857
 30
0.0
  0
VERTEX
  5
223
330
216
100
AcDbEntity
  8
Sichtbare Kanten(TC_020513_DIN)
100
AcDbVertex
100
AcDb2dVertex
 10
333.6960579280089
 20
194.8478646251542
 30
0.0
  0
VERTEX
  5
224
330
216
100
AcDbEntity
  8
Sichtbare Kanten(TC_020513_DIN)
100
AcDbVertex
100
AcDb2dVertex
 10
333.69129909317
 20
195.5271191570145
 30
0.0
  0
VERTEX
  5
225
330
216
100
AcDbEntity
  8
Sichtbare Kanten(TC_020513_DIN)
100
AcDbVertex
100
AcDb2dVertex
 10
333.6960579280089
 20
196.2063713046891
 30
0.0
  0
VERTEX
  5
226
330
216
100
AcDbEntity
  8
Sichtbare Kanten(TC_020513_DIN)
100
AcDbVertex
100
AcDb2dVertex
 10
333.7100149516295
 20
196.8965311023575
 30
0.0
  0
VERTEX
  5
227
330
216
100
AcDbEntity
  8
Sichtbare Kanten(TC_020513_DIN)
100
AcDbVertex
100
AcDb2dVertex
 10
333.7326742533873
 20
197.5943107578141
 30
0.0
  0
VERTEX
  5
228
330
216
100
AcDbEntity
  8
Sichtbare Kanten(TC_020513_DIN)
100
AcDbVertex
100
AcDb2dVertex
 10
333.7635303858946
 20
198.2964248630387
 30
0.0
  0
VERTEX
  5
229
330
216
100
AcDbEntity
  8
Sichtbare Kanten(TC_020513_DIN)
100
AcDbVertex
100
AcDb2dVertex
 10
333.801276815338
 20
198.9996905300003
 30
0.0
  0
VERTEX
  5
22A
330
216
100
AcDbEntity
  8
Sichtbare Kanten(TC_020513_DIN)
100
AcDbVertex
100
AcDb2dVertex
 10
333.8435150508116
 20
199.7010846111161
 30
0.0
  0
VERTEX
  5
22B
330
216
100
AcDbEntity
  8
Sichtbare Kanten(TC_020513_DIN)
100
AcDbVertex
100
AcDb2dVertex
 10
333.8877655390929
 20
200.3975958797318
 30
0.0
  0
VERTEX
  5
22C
330
216
100
AcDbEntity
  8
Sichtbare Kanten(TC_020513_DIN)
100
AcDbVertex
100
AcDb2dVertex
 10
333.931458127899
 20
201.0862894031388
 30
0.0
  0
VERTEX
  5
22D
330
216
100
AcDbEntity
  8
Sichtbare Kanten(TC_020513_DIN)
100
AcDbVertex
100
AcDb2dVertex
 10
333.9713932398985
 20
201.7646594020707
 30
0.0
  0
VERTEX
  5
22E
330
216
100
AcDbEntity
  8
Sichtbare Kanten(TC_020513_DIN)
100
AcDbVertex
100
AcDb2dVertex
 10
334.0041471842955
 20
202.430178639589
 30
0.0
  0
VERTEX
  5
22F
330
216
100
AcDbEntity
  8
Sichtbare Kanten(TC_020513_DIN)
100
AcDbVertex
100
AcDb2dVertex
 10
334.0263010386656
 20
203.0803008052689
 30
0.0
  0
VERTEX
  5
230
330
216
100
AcDbEntity
  8
Sichtbare Kanten(TC_020513_DIN)
100
AcDbVertex
100
AcDb2dVertex
 10
334.0344454173277
 20
203.7124724361283
 30
0.0
  0
SEQEND
  5
219
330
216
100
AcDbEntity
  8
Sichtbare Kanten(TC_020513_DIN)
  0
LINE
  5
231
330
37
100
AcDbEntity
  8
Sichtbare Kanten(TC_020513_DIN)
100
AcDbLine
 10
345.5344435099791
 20
213.2771186801774
 30
0.0
 11
334.0344435099791
 21
213.2771186801774
 31
0.0
  0
LINE
  5
232
330
37
100
AcDbEntity
  8
Sichtbare Kanten(TC_020513_DIN)
100
AcDbLine
 10
334.8023927024102
 20
179.0271186801774
 30
0.0
 11
344.5344435099792
 21
179.0271186801774
 31
0.0
  0
LINE
  5
233
330
37
100
AcDbEntity
  8
Sichtbare Kanten(TC_020513_DIN)
100
AcDbLine
 10
334.8023927024102
 20
175.0271186801774
 30
0.0
 11
344.5344435099792
 21
175.0271186801774
 31
0.0
  0
LINE
  5
234
330
37
100
AcDbEntity
  8
Sichtbare Kanten(TC_020513_DIN)
100
AcDbLine
 10
212.266494317548
 20
175.0271186801774
 30
0.0
 11
202.5344435099791
 21
175.0271186801774
 31
0.0
  0
LINE
  5
235
330
37
100
AcDbEntity
  8
Sichtbare Kanten(TC_020513_DIN)
100
AcDbLine
 10
212.266494317548
 20
179.0271186801774
 30
0.0
 11
202.5344435099791
 21
179.0271186801774
 31
0.0
  0
LINE
  5
236
330
37
100
AcDbEntity
  8
Sichtbare Kanten(TC_020513_DIN)
100
AcDbLine
 10
201.5344435099791
 20
179.0271186801774
 30
0.0
 11
201.5344435099791
 21
175.0271186801774
 31
0.0
  0
LINE
  5
237
330
37
100
AcDbEntity
  8
Sichtbare Kanten(TC_020513_DIN)
100
AcDbLine
 10
201.5344435099791
 20
213.2771186801774
 30
0.0
 11
201.5344435099791
 21
179.0271186801774
 31
0.0
  0
POLYLINE
  5
238
330
37
100
AcDbEntity
  8
Sichtbare Kanten(TC_020513_DIN)
100
AcDb2dPolyline
 66
     1
 10
0.0
 20
0.0
 30
0.0
 70
   128
  0
VERTEX
  5
239
330
238
100
AcDbEntity
  8
Sichtbare Kanten(TC_020513_DIN)
100
AcDbVertex
100
AcDb2dVertex
 10
213.0344416026304
 20
203.7124724361283
 30
0.0
  0
VERTEX
  5
23A
330
238
100
AcDbEntity
  8
Sichtbare Kanten(TC_020513_DIN)
100
AcDbVertex
100
AcDb2dVertex
 10
213.0425859812926
 20
203.0803008052689
 30
0.0
  0
VERTEX
  5
23C
330
238
100
AcDbEntity
  8
Sichtbare Kanten(TC_020513_DIN)
100
AcDbVertex
100
AcDb2dVertex
 10
213.0647398356627
 20
202.430178639589
 30
0.0
  0
VERTEX
  5
23D
330
238
100
AcDbEntity
  8
Sichtbare Kanten(TC_020513_DIN)
100
AcDbVertex
100
AcDb2dVertex
 10
213.0974937800597
 20
201.7646594020707
 30
0.0
  0
VERTEX
  5
23E
330
238
100
AcDbEntity
  8
Sichtbare Kanten(TC_020513_DIN)
100
AcDbVertex
100
AcDb2dVertex
 10
213.1374288920592
 20
201.0862894031388
 30
0.0
  0
VERTEX
  5
23F
330
238
100
AcDbEntity
  8
Sichtbare Kanten(TC_020513_DIN)
100
AcDbVertex
100
AcDb2dVertex
 10
213.1811214808653
 20
200.3975958797318
 30
0.0
  0
VERTEX
  5
240
330
238
100
AcDbEntity
  8
Sichtbare Kanten(TC_020513_DIN)
100
AcDbVertex
100
AcDb2dVertex
 10
213.2253719691466
 20
199.7010846111161
 30
0.0
  0
VERTEX
  5
241
330
238
100
AcDbEntity
  8
Sichtbare Kanten(TC_020513_DIN)
100
AcDbVertex
100
AcDb2dVertex
 10
213.2676102046202
 20
198.9996905300003
 30
0.0
  0
VERTEX
  5
242
330
238
100
AcDbEntity
  8
Sichtbare Kanten(TC_020513_DIN)
100
AcDbVertex
100
AcDb2dVertex
 10
213.3053566340636
 20
198.2964248630387
 30
0.0
  0
VERTEX
  5
243
330
238
100
AcDbEntity
  8
Sichtbare Kanten(TC_020513_DIN)
100
AcDbVertex
100
AcDb2dVertex
 10
213.3362127665709
 20
197.5943107578141
 30
0.0
  0
VERTEX
  5
244
330
238
100
AcDbEntity
  8
Sichtbare Kanten(TC_020513_DIN)
100
AcDbVertex
100
AcDb2dVertex
 10
213.3588720683287
 20
196.8965311023575
 30
0.0
  0
VERTEX
  5
245
330
238
100
AcDbEntity
  8
Sichtbare Kanten(TC_020513_DIN)
100
AcDbVertex
100
AcDb2dVertex
 10
213.3728290919493
 20
196.2063713046891
 30
0.0
  0
VERTEX
  5
246
330
238
100
AcDbEntity
  8
Sichtbare Kanten(TC_020513_DIN)
100
AcDbVertex
100
AcDb2dVertex
 10
213.3775879267882
 20
195.5271191570145
 30
0.0
  0
VERTEX
  5
247
330
238
100
AcDbEntity
  8
Sichtbare Kanten(TC_020513_DIN)
100
AcDbVertex
100
AcDb2dVertex
 10
213.3728290919493
 20
194.8478646251542
 30
0.0
  0
VERTEX
  5
248
330
238
100
AcDbEntity
  8
Sichtbare Kanten(TC_020513_DIN)
100
AcDbVertex
100
AcDb2dVertex
 10
213.3588720683287
 20
194.1577048274857
 30
0.0
  0
VERTEX
  5
249
330
238
100
AcDbEntity
  8
Sichtbare Kanten(TC_020513_DIN)
100
AcDbVertex
100
AcDb2dVertex
 10
213.3362127665709
 20
193.4599251720292
 30
0.0
  0
VERTEX
  5
24A
330
238
100
AcDbEntity
  8
Sichtbare Kanten(TC_020513_DIN)
100
AcDbVertex
100
AcDb2dVertex
 10
213.3053566340636
 20
192.7578110668046
 30
0.0
  0
VERTEX
  5
24B
330
238
100
AcDbEntity
  8
Sichtbare Kanten(TC_020513_DIN)
100
AcDbVertex
100
AcDb2dVertex
 10
213.2676102046202
 20
192.0545477840287
 30
0.0
  0
VERTEX
  5
24C
330
238
100
AcDbEntity
  8
Sichtbare Kanten(TC_020513_DIN)
100
AcDbVertex
100
AcDb2dVertex
 10
213.2253719691466
 20
191.3531537029129
 30
0.0
  0
VERTEX
  5
24D
330
238
100
AcDbEntity
  8
Sichtbare Kanten(TC_020513_DIN)
100
AcDbVertex
100
AcDb2dVertex
 10
213.1811214808653
 20
190.6566424342972
 30
0.0
  0
VERTEX
  5
24E
330
238
100
AcDbEntity
  8
Sichtbare Kanten(TC_020513_DIN)
100
AcDbVertex
100
AcDb2dVertex
 10
213.1374288920592
 20
189.9679489108903
 30
0.0
  0
VERTEX
  5
24F
330
238
100
AcDbEntity
  8
Sichtbare Kanten(TC_020513_DIN)
100
AcDbVertex
100
AcDb2dVertex
 10
213.0974937800597
 20
189.2895789119584
 30
0.0
  0
VERTEX
  5
250
330
238
100
AcDbEntity
  8
Sichtbare Kanten(TC_020513_DIN)
100
AcDbVertex
100
AcDb2dVertex
 10
213.0647398356627
 20
188.6240572902543
 30
0.0
  0
VERTEX
  5
251
330
238
100
AcDbEntity
  8
Sichtbare Kanten(TC_020513_DIN)
100
AcDbVertex
100
AcDb2dVertex
 10
213.0425859812926
 20
187.9739375087601
 30
0.0
  0
VERTEX
  5
252
330
238
100
AcDbEntity
  8
Sichtbare Kanten(TC_020513_DIN)
100
AcDbVertex
100
AcDb2dVertex
 10
213.0344416026304
 20
187.3417658779007
 30
0.0
  0
SEQEND
  5
23B
330
238
100
AcDbEntity
  8
Sichtbare Kanten(TC_020513_DIN)
  0
LINE
  5
253
330
37
100
AcDbEntity
  8
Sichtbare Kanten(TC_020513_DIN)
100
AcDbLine
 10
213.0344435099791
 20
213.2771186801774
 30
0.0
 11
201.5344435099791
 21
213.2771186801774
 31
0.0
  0
LINE
  5
254
330
37
100
AcDbEntity
  8
Sichtbare Kanten(TC_020513_DIN)
100
AcDbLine
 10
288.5344435099791
 20
255.0271186801774
 30
0.0
 11
288.5344435099791
 21
259.0271186801774
 31
0.0
  0
LINE
  5
255
330
37
100
AcDbEntity
  8
Sichtbare Kanten(TC_020513_DIN)
100
AcDbLine
 10
258.5344435099791
 20
259.0271186801774
 30
0.0
 11
258.5344435099791
 21
255.0271186801774
 31
0.0
  0
LINE
  5
256
330
37
100
AcDbEntity
  8
Sichtbare Kanten(TC_020513_DIN)
100
AcDbLine
 10
282.6844435099791
 20
259.5271186801774
 30
0.0
 11
288.0344435099791
 21
259.5271186801774
 31
0.0
  0
LINE
  5
257
330
37
100
AcDbEntity
  8
Sichtbare Kanten(TC_020513_DIN)
100
AcDbLine
 10
259.0344435099791
 20
259.5271186801774
 30
0.0
 11
264.3844435099791
 21
259.5271186801774
 31
0.0
  0
LINE
  5
258
330
37
100
AcDbEntity
  8
Sichtbare Kanten(TC_020513_DIN)
100
AcDbLine
 10
213.0344435099791
 20
187.341765908305
 30
0.0
 11
213.0344435099791
 21
179.0271186801774
 31
0.0
  0
LINE
  5
259
330
37
100
AcDbEntity
  8
Sichtbare Kanten(TC_020513_DIN)
100
AcDbLine
 10
334.0344435099792
 20
187.3417659083049
 30
0.0
 11
334.0344435099792
 21
179.0271186801774
 31
0.0
  0
LINE
  5
25A
330
37
100
AcDbEntity
  8
Sichtbare Kanten(TC_020513_DIN)
100
AcDbLine
 10
334.0344435099791
 20
249.5271186801774
 30
0.0
 11
334.0344435099792
 21
203.7124714520499
 31
0.0
  0
LINE
  5
25B
330
37
100
AcDbEntity
  8
Sichtbare Kanten(TC_020513_DIN)
100
AcDbLine
 10
213.0344435099791
 20
249.5271186801774
 30
0.0
 11
213.0344435099791
 21
203.7124714520498
 31
0.0
  0
LINE
  5
25C
330
37
100
AcDbEntity
  8
Sichtbare Kanten(TC_020513_DIN)
100
AcDbLine
 10
213.0344435099791
 20
286.0354612934035
 30
0.0
 11
206.7844435099791
 21
286.0354612934035
 31
0.0
  0
LINE
  5
25D
330
37
100
AcDbEntity
  8
Sichtbare Kanten(TC_020513_DIN)
100
AcDbLine
 10
206.7844435099791
 20
294.2771186801774
 30
0.0
 11
206.7844435099791
 21
293.5187760669513
 31
0.0
  0
LINE
  5
25E
330
37
100
AcDbEntity
  8
Sichtbare Kanten(TC_020513_DIN)
100
AcDbLine
 10
206.7844435099791
 20
286.0354612934035
 30
0.0
 11
206.7844435099791
 21
285.2771186801774
 31
0.0
  0
LINE
  5
25F
330
37
100
AcDbEntity
  8
Sichtbare Kanten(TC_020513_DIN)
100
AcDbLine
 10
213.0344435099791
 20
293.5187760669513
 30
0.0
 11
206.7844435099791
 21
293.5187760669513
 31
0.0
  0
LINE
  5
260
330
37
100
AcDbEntity
  8
Sichtbare Kanten(TC_020513_DIN)
100
AcDbLine
 10
206.7844435099791
 20
286.0354612934035
 30
0.0
 11
206.7844435099791
 21
293.5187760669513
 31
0.0
  0
LINE
  5
261
330
37
100
AcDbEntity
  8
Sichtbare Kanten(TC_020513_DIN)
100
AcDbLine
 10
206.7844435099791
 20
294.2771186801774
 30
0.0
 11
213.0344435099791
 21
294.2771186801774
 31
0.0
  0
LINE
  5
262
330
37
100
AcDbEntity
  8
Sichtbare Kanten(TC_020513_DIN)
100
AcDbLine
 10
206.7844435099791
 20
285.2771186801774
 30
0.0
 11
213.0344435099791
 21
285.2771186801774
 31
0.0
  0
LINE
  5
263
330
37
100
AcDbEntity
  8
Sichtbare Kanten(TC_020513_DIN)
100
AcDbLine
 10
334.0344435099792
 20
293.5187760669513
 30
0.0
 11
340.2844435099792
 21
293.5187760669513
 31
0.0
  0
LINE
  5
264
330
37
100
AcDbEntity
  8
Sichtbare Kanten(TC_020513_DIN)
100
AcDbLine
 10
340.2844435099792
 20
294.2771186801774
 30
0.0
 11
340.2844435099792
 21
293.5187760669513
 31
0.0
  0
LINE
  5
265
330
37
100
AcDbEntity
  8
Sichtbare Kanten(TC_020513_DIN)
100
AcDbLine
 10
340.2844435099792
 20
286.0354612934035
 30
0.0
 11
340.2844435099792
 21
285.2771186801774
 31
0.0
  0
LINE
  5
266
330
37
100
AcDbEntity
  8
Sichtbare Kanten(TC_020513_DIN)
100
AcDbLine
 10
334.0344435099792
 20
286.0354612934035
 30
0.0
 11
340.2844435099792
 21
286.0354612934035
 31
0.0
  0
LINE
  5
267
330
37
100
AcDbEntity
  8
Sichtbare Kanten(TC_020513_DIN)
100
AcDbLine
 10
340.2844435099792
 20
286.0354612934035
 30
0.0
 11
340.2844435099792
 21
293.5187760669513
 31
0.0
  0
LINE
  5
268
330
37
100
AcDbEntity
  8
Sichtbare Kanten(TC_020513_DIN)
100
AcDbLine
 10
334.0344435099792
 20
294.2771186801774
 30
0.0
 11
340.2844435099792
 21
294.2771186801774
 31
0.0
  0
LINE
  5
269
330
37
100
AcDbEntity
  8
Sichtbare Kanten(TC_020513_DIN)
100
AcDbLine
 10
334.0344435099792
 20
285.2771186801774
 30
0.0
 11
340.2844435099792
 21
285.2771186801774
 31
0.0
  0
ARC
  5
26A
330
37
100
AcDbEntity
  8
Sichtbare Kanten(TC_020513_DIN)
100
AcDbCircle
 10
283.5344435099791
 20
267.0271186801774
 30
0.0
 40
0.9999999999999964
100
AcDbArc
 50
90.0
 51
180.0
  0
ARC
  5
26B
330
37
100
AcDbEntity
  8
Sichtbare Kanten(TC_020513_DIN)
100
AcDbCircle
 10
263.5344435099791
 20
267.0271186801774
 30
0.0
 40
0.9999999999999964
100
AcDbArc
 50
0.0
 51
90.0
  0
LINE
  5
26C
330
37
100
AcDbEntity
  8
Sichtbare Kanten(TC_020513_DIN)
100
AcDbLine
 10
264.5344435099791
 20
258.3884829720787
 30
0.0
 11
264.5344435099791
 21
255.0271186801774
 31
0.0
  0
LINE
  5
26D
330
37
100
AcDbEntity
  8
Sichtbare Kanten(TC_020513_DIN)
100
AcDbLine
 10
264.5344435099791
 20
258.7691151108777
 30
0.0
 11
264.5344435099791
 21
258.3884829720787
 31
0.0
  0
LINE
  5
26E
330
37
100
AcDbEntity
  8
Sichtbare Kanten(TC_020513_DIN)
100
AcDbLine
 10
282.5344435099791
 20
258.3884829720787
 30
0.0
 11
282.5344435099791
 21
258.7691151108777
 31
0.0
  0
LINE
  5
26F
330
37
100
AcDbEntity
  8
Sichtbare Kanten(TC_020513_DIN)
100
AcDbLine
 10
282.5344435099791
 20
255.0271186801774
 30
0.0
 11
282.5344435099791
 21
258.3884829720787
 31
0.0
  0
ELLIPSE
  5
270
330
37
100
AcDbEntity
  8
Sichtbare Kanten(TC_020513_DIN)
100
AcDbEllipse
 10
265.5344435099791
 20
258.7691151108777
 30
0.0
 11
0.0000000000000071
 21
1.007509825458848
 31
0.0
210
0.0
220
0.0
230
1.0
 40
0.9925461516413218
 41
0.0
 42
1.570796326794903
  0
ELLIPSE
  5
271
330
37
100
AcDbEntity
  8
Sichtbare Kanten(TC_020513_DIN)
100
AcDbEllipse
 10
281.5344435099791
 20
258.7691151108777
 30
0.0
 11
0.0000000000000002
 21
1.007509825458848
 31
0.0
210
0.0
220
0.0
230
1.0
 40
0.9925461516413218
 41
4.712388980384689
 42
6.283185307179586
  0
LINE
  5
272
330
37
100
AcDbEntity
  8
Sichtbare Kanten(TC_020513_DIN)
100
AcDbLine
 10
264.5344435099791
 20
267.0271186801774
 30
0.0
 11
264.5344435099791
 21
258.7691151108777
 31
0.0
  0
LINE
  5
273
330
37
100
AcDbEntity
  8
Sichtbare Kanten(TC_020513_DIN)
100
AcDbLine
 10
282.5344435099791
 20
258.7691151108777
 30
0.0
 11
282.5344435099791
 21
267.0271186801774
 31
0.0
  0
LINE
  5
274
330
37
100
AcDbEntity
  8
Sichtbare Kanten(TC_020513_DIN)
100
AcDbLine
 10
281.5344435099791
 20
259.7766249363366
 30
0.0
 11
265.5344435099791
 21
259.7766249363366
 31
0.0
  0
ARC
  5
275
330
37
100
AcDbEntity
  8
Sichtbare Kanten(TC_020513_DIN)
100
AcDbCircle
 10
328.0344435099792
 20
274.0271186801774
 30
0.0
 40
6.000000000000014
100
AcDbArc
 50
270.0
 51
0.0
  0
LINE
  5
276
330
37
100
AcDbEntity
  8
Sichtbare Kanten(TC_020513_DIN)
100
AcDbLine
 10
334.0344435099792
 20
274.0271186801774
 30
0.0
 11
334.0344435099792
 21
305.5271186801774
 31
0.0
  0
LINE
  5
277
330
37
100
AcDbEntity
  8
Sichtbare Kanten(TC_020513_DIN)
100
AcDbLine
 10
264.0344435099791
 20
311.5271186801774
 30
0.0
 11
219.0344435099791
 21
311.5271186801774
 31
0.0
  0
LINE
  5
278
330
37
100
AcDbEntity
  8
Sichtbare Kanten(TC_020513_DIN)
100
AcDbLine
 10
328.0344435099792
 20
311.5271186801774
 30
0.0
 11
283.0344435099791
 21
311.5271186801774
 31
0.0
  0
ARC
  5
279
330
37
100
AcDbEntity
  8
Sichtbare Kanten(TC_020513_DIN)
100
AcDbCircle
 10
328.0344435099792
 20
274.0271186801773
 30
0.0
 40
3.49999999999996
100
AcDbArc
 50
270.0
 51
0.0
  0
LINE
  5
27A
330
37
100
AcDbEntity
  8
Sichtbare Kanten(TC_020513_DIN)
100
AcDbLine
 10
328.0344435099792
 20
270.5271186801774
 30
0.0
 11
219.0344435099791
 21
270.5271186801774
 31
0.0
  0
ARC
  5
27B
330
37
100
AcDbEntity
  8
Sichtbare Kanten(TC_020513_DIN)
100
AcDbCircle
 10
219.0344435099791
 20
274.0271186801773
 30
0.0
 40
3.49999999999996
100
AcDbArc
 50
180.0
 51
270.0000000000006
  0
LINE
  5
27C
330
37
100
AcDbEntity
  8
Sichtbare Kanten(TC_020513_DIN)
100
AcDbLine
 10
215.5344435099791
 20
274.0271186801774
 30
0.0
 11
215.5344435099791
 21
305.5271186801774
 31
0.0
  0
LINE
  5
27D
330
37
100
AcDbEntity
  8
Sichtbare Kanten(TC_020513_DIN)
100
AcDbLine
 10
219.0344435099791
 20
268.0271186801774
 30
0.0
 11
328.0344435099792
 21
268.0271186801774
 31
0.0
  0
LINE
  5
27E
330
37
100
AcDbEntity
  8
Sichtbare Kanten(TC_020513_DIN)
100
AcDbLine
 10
331.5344435099791
 20
305.5271186801774
 30
0.0
 11
331.5344435099791
 21
274.0271186801774
 31
0.0
  0
ARC
  5
27F
330
37
100
AcDbEntity
  8
Sichtbare Kanten(TC_020513_DIN)
100
AcDbCircle
 10
328.0344435099792
 20
305.5271186801774
 30
0.0
 40
3.499999999999978
100
AcDbArc
 50
0.0
 51
90.0
  0
LINE
  5
280
330
37
100
AcDbEntity
  8
Sichtbare Kanten(TC_020513_DIN)
100
AcDbLine
 10
219.0344435099791
 20
309.0271186801774
 30
0.0
 11
328.0344435099792
 21
309.0271186801774
 31
0.0
  0
ARC
  5
281
330
37
100
AcDbEntity
  8
Sichtbare Kanten(TC_020513_DIN)
100
AcDbCircle
 10
219.0344435099791
 20
305.5271186801774
 30
0.0
 40
3.499999999999978
100
AcDbArc
 50
90.0
 51
180.0
  0
ARC
  5
282
330
37
100
AcDbEntity
  8
Sichtbare Kanten(TC_020513_DIN)
100
AcDbCircle
 10
328.0344435099792
 20
305.5271186801774
 30
0.0
 40
6.000000000000005
100
AcDbArc
 50
0.0
 51
90.0
  0
ARC
  5
283
330
37
100
AcDbEntity
  8
Sichtbare Kanten(TC_020513_DIN)
100
AcDbCircle
 10
219.0344435099791
 20
305.5271186801774
 30
0.0
 40
5.999999999999978
100
AcDbArc
 50
90.0
 51
180.0
  0
LINE
  5
284
330
37
100
AcDbEntity
  8
Sichtbare Kanten(TC_020513_DIN)
100
AcDbLine
 10
213.0344435099791
 20
305.5271186801774
 30
0.0
 11
213.0344435099791
 21
274.0271186801774
 31
0.0
  0
ARC
  5
285
330
37
100
AcDbEntity
  8
Sichtbare Kanten(TC_020513_DIN)
100
AcDbCircle
 10
219.0344435099791
 20
274.0271186801774
 30
0.0
 40
6.000000000000023
100
AcDbArc
 50
180.0
 51
269.9999999999997
  0
LINE
  5
286
330
37
100
AcDbEntity
  8
Sichtbare Kanten(TC_020513_DIN)
100
AcDbLine
 10
264.0344435099791
 20
311.5271186801774
 30
0.0
 11
264.0344435099791
 21
314.5271186801774
 31
0.0
  0
LINE
  5
287
330
37
100
AcDbEntity
  8
Sichtbare Kanten(TC_020513_DIN)
100
AcDbLine
 10
264.0344435099791
 20
314.5271186801774
 30
0.0
 11
283.0344435099791
 21
314.5271186801774
 31
0.0
  0
LINE
  5
288
330
37
100
AcDbEntity
  8
Sichtbare Kanten(TC_020513_DIN)
100
AcDbLine
 10
283.0344435099791
 20
314.5271186801774
 30
0.0
 11
283.0344435099791
 21
311.5271186801774
 31
0.0
  0
LINE
  5
289
330
37
100
AcDbEntity
  8
Sichtbare Kanten(TC_020513_DIN)
100
AcDbLine
 10
286.5344435099791
 20
256.5271186801774
 30
0.0
 11
286.5344435099791
 21
255.0271186801774
 31
0.0
  0
LINE
  5
28A
330
37
100
AcDbEntity
  8
Sichtbare Kanten(TC_020513_DIN)
100
AcDbLine
 10
260.5344435099791
 20
255.0271186801774
 30
0.0
 11
260.5344435099791
 21
256.5271186801774
 31
0.0
  0
LINE
  5
28B
330
37
100
AcDbEntity
  8
Sichtbare Kanten(TC_020513_DIN)
100
AcDbLine
 10
282.5344435099791
 20
256.5271186801774
 30
0.0
 11
282.6844435099791
 21
256.5271186801774
 31
0.0
  0
LINE
  5
28C
330
37
100
AcDbEntity
  8
Sichtbare Kanten(TC_020513_DIN)
100
AcDbLine
 10
264.3844435099791
 20
256.5271186801774
 30
0.0
 11
264.5344435099791
 21
256.5271186801774
 31
0.0
  0
LINE
  5
28D
330
37
100
AcDbEntity
  8
Sichtbare Kanten(TC_020513_DIN)
100
AcDbLine
 10
212.7844435099791
 20
255.0271186801774
 30
0.0
 11
218.7844435099791
 21
255.0271186801774
 31
0.0
  0
LINE
  5
28E
330
37
100
AcDbEntity
  8
Sichtbare Kanten(TC_020513_DIN)
100
AcDbLine
 10
328.2844435099792
 20
255.0271186801774
 30
0.0
 11
218.7844435099791
 21
255.0271186801774
 31
0.0
  0
LINE
  5
28F
330
37
100
AcDbEntity
  8
Sichtbare Kanten(TC_020513_DIN)
100
AcDbLine
 10
328.2844435099792
 20
255.0271186801774
 30
0.0
 11
334.2844435099792
 21
255.0271186801774
 31
0.0
  0
LINE
  5
290
330
37
100
AcDbEntity
  8
Sichtbare Kanten(TC_020513_DIN)
100
AcDbLine
 10
212.7844435099791
 20
249.5271186801774
 30
0.0
 11
212.7844435099791
 21
255.0271186801774
 31
0.0
  0
LINE
  5
291
330
37
100
AcDbEntity
  8
Sichtbare Kanten(TC_020513_DIN)
100
AcDbLine
 10
212.7844435099791
 20
249.5271186801774
 30
0.0
 11
218.7844435099791
 21
249.5271186801774
 31
0.0
  0
LINE
  5
292
330
37
100
AcDbEntity
  8
Sichtbare Kanten(TC_020513_DIN)
100
AcDbLine
 10
328.2844435099792
 20
249.5271186801774
 30
0.0
 11
218.7844435099791
 21
249.5271186801774
 31
0.0
  0
LINE
  5
293
330
37
100
AcDbEntity
  8
Sichtbare Kanten(TC_020513_DIN)
100
AcDbLine
 10
328.2844435099792
 20
249.5271186801774
 30
0.0
 11
334.2844435099792
 21
249.5271186801774
 31
0.0
  0
LINE
  5
294
330
37
100
AcDbEntity
  8
Sichtbare Kanten(TC_020513_DIN)
100
AcDbLine
 10
334.2844435099792
 20
249.5271186801774
 30
0.0
 11
334.2844435099792
 21
255.0271186801774
 31
0.0
  0
ARC
  5
295
330
37
100
AcDbEntity
  8
Sichtbare Kanten(TC_020513_DIN)
100
AcDbCircle
 10
259.0344435099791
 20
259.0271186801774
 30
0.0
 40
0.5
100
AcDbArc
 50
90.0
 51
180.0
  0
ARC
  5
296
330
37
100
AcDbEntity
  8
Sichtbare Kanten(TC_020513_DIN)
100
AcDbCircle
 10
288.0344435099791
 20
259.0271186801774
 30
0.0
 40
0.5
100
AcDbArc
 50
0.0
 51
90.0
  0
LINE
  5
297
330
37
100
AcDbEntity
  8
Sichtbare Kanten(TC_020513_DIN)
100
AcDbLine
 10
260.2844435099791
 20
259.0271186801774
 30
0.0
 11
264.3844435099791
 21
259.0271186801774
 31
0.0
  0
LINE
  5
298
330
37
100
AcDbEntity
  8
Sichtbare Kanten(TC_020513_DIN)
100
AcDbLine
 10
260.2844435099791
 20
255.0271186801774
 30
0.0
 11
260.2844435099791
 21
259.0271186801774
 31
0.0
  0
LINE
  5
299
330
37
100
AcDbEntity
  8
Sichtbare Kanten(TC_020513_DIN)
100
AcDbLine
 10
282.6844435099791
 20
257.1206378902985
 30
0.0
 11
282.6844435099791
 21
256.5271186801774
 31
0.0
  0
LINE
  5
29A
330
37
100
AcDbEntity
  8
Sichtbare Kanten(TC_020513_DIN)
100
AcDbLine
 10
282.6844435099791
 20
257.1206378902985
 30
0.0
 11
282.6844435099791
 21
259.0271186801774
 31
0.0
  0
LINE
  5
29B
330
37
100
AcDbEntity
  8
Sichtbare Kanten(TC_020513_DIN)
100
AcDbLine
 10
264.3844435099791
 20
259.0271186801774
 30
0.0
 11
264.3844435099791
 21
257.1206378902985
 31
0.0
  0
LINE
  5
29C
330
37
100
AcDbEntity
  8
Sichtbare Kanten(TC_020513_DIN)
100
AcDbLine
 10
264.3844435099791
 20
256.5271186801774
 30
0.0
 11
264.3844435099791
 21
257.1206378902985
 31
0.0
  0
LINE
  5
29D
330
37
100
AcDbEntity
  8
Sichtbare Kanten(TC_020513_DIN)
100
AcDbLine
 10
282.6844435099791
 20
259.0271186801774
 30
0.0
 11
286.7844435099791
 21
259.0271186801774
 31
0.0
  0
LINE
  5
29E
330
37
100
AcDbEntity
  8
Sichtbare Kanten(TC_020513_DIN)
100
AcDbLine
 10
286.7844435099791
 20
259.0271186801774
 30
0.0
 11
286.7844435099791
 21
255.0271186801774
 31
0.0
  0
LINE
  5
29F
330
37
100
AcDbEntity
  8
Sichtbare Kanten(TC_020513_DIN)
100
AcDbLine
 10
282.6844435099791
 20
256.5271186801774
 30
0.0
 11
286.7844435099791
 21
256.5271186801774
 31
0.0
  0
LINE
  5
2A0
330
37
100
AcDbEntity
  8
Sichtbare Kanten(TC_020513_DIN)
100
AcDbLine
 10
260.2844435099791
 20
256.5271186801774
 30
0.0
 11
264.3844435099791
 21
256.5271186801774
 31
0.0
  0
LINE
  5
2A1
330
37
100
AcDbEntity
  8
Sichtbare Kanten(TC_020513_DIN)
100
AcDbLine
 10
264.3844435099791
 20
259.0271186801774
 30
0.0
 11
264.3844435099791
 21
259.5271186801774
 31
0.0
  0
LINE
  5
2A2
330
37
100
AcDbEntity
  8
Sichtbare Kanten(TC_020513_DIN)
100
AcDbLine
 10
282.6844435099791
 20
259.5271186801774
 30
0.0
 11
282.6844435099791
 21
259.0271186801774
 31
0.0
  0
LINE
  5
2A3
330
37
100
AcDbEntity
  8
Sichtbare Kanten(TC_020513_DIN)
100
AcDbLine
 10
267.5344435099791
 20
258.1040625247088
 30
0.0
 11
267.5344435099791
 21
255.0271186801774
 31
0.0
  0
LINE
  5
2A4
330
37
100
AcDbEntity
  8
Sichtbare Kanten(TC_020513_DIN)
100
AcDbLine
 10
279.5344435099792
 20
255.0271186801774
 30
0.0
 11
279.5344435099792
 21
258.1040625247088
 31
0.0
  0
LINE
  5
2A5
330
37
100
AcDbEntity
  8
Sichtbare Kanten(TC_020513_DIN)
100
AcDbLine
 10
268.2344435099791
 20
258.7999019614644
 30
0.0
 11
278.8344435099791
 21
258.7999019614644
 31
0.0
  0
LINE
  5
2A6
330
37
100
AcDbEntity
  8
Sichtbare Kanten(TC_020513_DIN)
100
AcDbLine
 10
268.2344435099791
 20
258.8543353988904
 30
0.0
 11
278.8344435099791
 21
258.8543353988904
 31
0.0
  0
ELLIPSE
  5
2A7
330
37
100
AcDbEntity
  8
Sichtbare Kanten(TC_020513_DIN)
100
AcDbEllipse
 10
268.2344435099791
 20
258.1040625247088
 30
0.0
 11
-0.6999999999999984
 21
-0.0000000000000044
 31
0.0
210
0.0
220
0.0
230
1.0
 40
0.9940563382223208
 41
4.712388980384683
 42
6.283185307179579
  0
ELLIPSE
  5
2A8
330
37
100
AcDbEntity
  8
Sichtbare Kanten(TC_020513_DIN)
100
AcDbEllipse
 10
278.8344435099791
 20
258.1040625247088
 30
0.0
 11
0.6999999999999942
 21
0.0000000000000017
 31
0.0
210
0.0
220
0.0
230
1.0
 40
0.9940563382223206
 41
0.0
 42
1.570796326794894
  0
LINE
  5
2A9
330
37
100
AcDbEntity
  8
Sichtbare Kanten(TC_020513_DIN)
100
AcDbLine
 10
267.5344435099791
 20
258.1584959621348
 30
0.0
 11
267.5344435099791
 21
258.1040625247088
 31
0.0
  0
ELLIPSE
  5
2AA
330
37
100
AcDbEntity
  8
Sichtbare Kanten(TC_020513_DIN)
100
AcDbEllipse
 10
278.8344435099791
 20
258.1584959621348
 30
0.0
 11
0.7000000000000018
 21
0.0000000000000044
 31
0.0
210
0.0
220
0.0
230
1.0
 40
0.9940563382223206
 41
0.0
 42
1.57079632679489
  0
LINE
  5
2AB
330
37
100
AcDbEntity
  8
Sichtbare Kanten(TC_020513_DIN)
100
AcDbLine
 10
279.5344435099792
 20
258.1040625247088
 30
0.0
 11
279.5344435099792
 21
258.1584959621348
 31
0.0
  0
ELLIPSE
  5
2AC
330
37
100
AcDbEntity
  8
Sichtbare Kanten(TC_020513_DIN)
100
AcDbEllipse
 10
268.2344435099791
 20
258.1584959621348
 30
0.0
 11
-0.6999999999999986
 21
0.000000000000005
 31
0.0
210
0.0
220
0.0
230
1.0
 40
0.9940563382223206
 41
4.712388980384696
 42
6.283185307179592
  0
LINE
  5
2AD
330
37
100
AcDbEntity
  8
Sichtbare Kanten(TC_020513_DIN)
100
AcDbLine
 10
496.050692017188
 20
179.0271186801774
 30
0.0
 11
497.0506920171883
 21
179.0271186801774
 31
0.0
  0
LINE
  5
2AE
330
37
100
AcDbEntity
  8
Sichtbare Kanten(TC_020513_DIN)
100
AcDbLine
 10
497.0506920171884
 20
175.0271186801773
 30
0.0
 11
496.0506920171881
 21
175.0271186801773
 31
0.0
  0
LINE
  5
2AF
330
37
100
AcDbEntity
  8
Sichtbare Kanten(TC_020513_DIN)
100
AcDbLine
 10
497.0506920171883
 20
175.0271186801774
 30
0.0
 11
497.0506920171883
 21
179.0271186801774
 31
0.0
  0
LINE
  5
2B0
330
37
100
AcDbEntity
  8
Sichtbare Kanten(TC_020513_DIN)
100
AcDbLine
 10
441.0506920171881
 20
175.0271186801773
 30
0.0
 11
440.0506920171884
 21
175.0271186801773
 31
0.0
  0
LINE
  5
2B1
330
37
100
AcDbEntity
  8
Sichtbare Kanten(TC_020513_DIN)
100
AcDbLine
 10
440.0506920171884
 20
179.0271186801774
 30
0.0
 11
441.0506920171881
 21
179.0271186801774
 31
0.0
  0
LINE
  5
2B2
330
37
100
AcDbEntity
  8
Sichtbare Kanten(TC_020513_DIN)
100
AcDbLine
 10
440.0506920171884
 20
179.0271186801774
 30
0.0
 11
440.0506920171884
 21
175.0271186801774
 31
0.0
  0
LINE
  5
2B3
330
37
100
AcDbEntity
  8
Sichtbare Kanten(TC_020513_DIN)
100
AcDbLine
 10
490.3006920171932
 20
249.5271186801774
 30
0.0
 11
490.3006920171932
 21
179.0271186801774
 31
0.0
  0
LINE
  5
2B4
330
37
100
AcDbEntity
  8
Sichtbare Kanten(TC_020513_DIN)
100
AcDbLine
 10
446.8006920171933
 20
249.5271186801774
 30
0.0
 11
446.8006920171933
 21
179.0271186801774
 31
0.0
  0
LINE
  5
2B5
330
37
100
AcDbEntity
  8
Sichtbare Kanten(TC_020513_DIN)
100
AcDbLine
 10
441.050692017188
 20
175.0271186801774
 30
0.0
 11
496.0506920171881
 21
175.0271186801774
 31
0.0
  0
LINE
  5
2B6
330
37
100
AcDbEntity
  8
Sichtbare Kanten(TC_020513_DIN)
100
AcDbLine
 10
496.050692017188
 20
179.0271186801774
 30
0.0
 11
475.0938181813393
 21
179.0271186801774
 31
0.0
  0
ARC
  5
2B7
330
37
100
AcDbEntity
  8
Sichtbare Kanten(TC_020513_DIN)
100
AcDbCircle
 10
468.5506920171881
 20
195.5271186801773
 30
0.0
 40
17.75
100
AcDbArc
 50
291.6309549980813
 51
248.3690450019186
  0
LINE
  5
2B8
330
37
100
AcDbEntity
  8
Sichtbare Kanten(TC_020513_DIN)
100
AcDbLine
 10
441.050692017188
 20
179.0271186801774
 30
0.0
 11
462.0075658530368
 21
179.0271186801774
 31
0.0
  0
CIRCLE
  5
2B9
330
37
100
AcDbEntity
  8
Sichtbare Kanten(TC_020513_DIN)
100
AcDbCircle
 10
468.5506920171881
 20
195.5271186801773
 30
0.0
 40
16.0
  0
CIRCLE
  5
2BA
330
37
100
AcDbEntity
  8
Sichtbare Kanten(TC_020513_DIN)
100
AcDbCircle
 10
468.550692017192
 20
195.5271186801773
 30
0.0
 40
13.99999999999999
  0
LINE
  5
2BB
330
37
100
AcDbEntity
  8
Sichtbare Kanten(TC_020513_DIN)
100
AcDbLine
 10
491.8006920171982
 20
243.0271186801774
 30
0.0
 11
491.8006920171982
 21
248.0271186801774
 31
0.0
  0
LINE
  5
2BC
330
37
100
AcDbEntity
  8
Sichtbare Kanten(TC_020513_DIN)
100
AcDbLine
 10
496.5506920171981
 20
243.0271186801774
 30
0.0
 11
496.5506920171981
 21
248.0271186801774
 31
0.0
  0
LINE
  5
2BD
330
37
100
AcDbEntity
  8
Sichtbare Kanten(TC_020513_DIN)
100
AcDbLine
 10
496.8006920171982
 20
243.2771186801773
 30
0.0
 11
496.8006920171982
 21
247.7771186801774
 31
0.0
  0
LINE
  5
2BE
330
37
100
AcDbEntity
  8
Sichtbare Kanten(TC_020513_DIN)
100
AcDbLine
 10
445.3006920171981
 20
243.0271186801774
 30
0.0
 11
445.3006920171981
 21
248.0271186801774
 31
0.0
  0
LINE
  5
2BF
330
37
100
AcDbEntity
  8
Sichtbare Kanten(TC_020513_DIN)
100
AcDbLine
 10
440.5506920171982
 20
243.0271186801774
 30
0.0
 11
440.5506920171982
 21
248.0271186801774
 31
0.0
  0
LINE
  5
2C0
330
37
100
AcDbEntity
  8
Sichtbare Kanten(TC_020513_DIN)
100
AcDbLine
 10
440.3006920171981
 20
243.2771186801773
 30
0.0
 11
440.3006920171981
 21
247.7771186801774
 31
0.0
  0
LINE
  5
2C1
330
37
100
AcDbEntity
  8
Sichtbare Kanten(TC_020513_DIN)
100
AcDbLine
 10
491.8006920171982
 20
243.0271186801774
 30
0.0
 11
490.3006920171981
 21
241.5271186801774
 31
0.0
  0
LINE
  5
2C2
330
37
100
AcDbEntity
  8
Sichtbare Kanten(TC_020513_DIN)
100
AcDbLine
 10
491.8006920171982
 20
248.0271186801774
 30
0.0
 11
490.3006920171981
 21
249.5271186801774
 31
0.0
  0
LINE
  5
2C3
330
37
100
AcDbEntity
  8
Sichtbare Kanten(TC_020513_DIN)
100
AcDbLine
 10
491.8006920171982
 20
248.0271186801774
 30
0.0
 11
496.5506920171981
 21
248.0271186801774
 31
0.0
  0
LINE
  5
2C4
330
37
100
AcDbEntity
  8
Sichtbare Kanten(TC_020513_DIN)
100
AcDbLine
 10
491.8006920171982
 20
243.0271186801774
 30
0.0
 11
496.5506920171981
 21
243.0271186801774
 31
0.0
  0
LINE
  5
2C5
330
37
100
AcDbEntity
  8
Sichtbare Kanten(TC_020513_DIN)
100
AcDbLine
 10
496.8006920171982
 20
243.2771186801774
 30
0.0
 11
496.5506920171981
 21
243.0271186801774
 31
0.0
  0
LINE
  5
2C6
330
37
100
AcDbEntity
  8
Sichtbare Kanten(TC_020513_DIN)
100
AcDbLine
 10
496.8006920171982
 20
247.7771186801774
 30
0.0
 11
496.5506920171981
 21
248.0271186801774
 31
0.0
  0
LINE
  5
2C7
330
37
100
AcDbEntity
  8
Sichtbare Kanten(TC_020513_DIN)
100
AcDbLine
 10
445.3006920171981
 20
248.0271186801774
 30
0.0
 11
446.8006920171982
 21
249.5271186801774
 31
0.0
  0
LINE
  5
2C8
330
37
100
AcDbEntity
  8
Sichtbare Kanten(TC_020513_DIN)
100
AcDbLine
 10
445.3006920171981
 20
243.0271186801774
 30
0.0
 11
446.8006920171982
 21
241.5271186801774
 31
0.0
  0
LINE
  5
2C9
330
37
100
AcDbEntity
  8
Sichtbare Kanten(TC_020513_DIN)
100
AcDbLine
 10
440.5506920171982
 20
248.0271186801774
 30
0.0
 11
445.3006920171981
 21
248.0271186801774
 31
0.0
  0
LINE
  5
2CA
330
37
100
AcDbEntity
  8
Sichtbare Kanten(TC_020513_DIN)
100
AcDbLine
 10
440.5506920171982
 20
243.0271186801774
 30
0.0
 11
445.3006920171981
 21
243.0271186801774
 31
0.0
  0
LINE
  5
2CB
330
37
100
AcDbEntity
  8
Sichtbare Kanten(TC_020513_DIN)
100
AcDbLine
 10
440.3006920171981
 20
247.7771186801774
 30
0.0
 11
440.5506920171982
 21
248.0271186801774
 31
0.0
  0
LINE
  5
2CC
330
37
100
AcDbEntity
  8
Sichtbare Kanten(TC_020513_DIN)
100
AcDbLine
 10
440.3006920171981
 20
243.2771186801774
 30
0.0
 11
440.5506920171982
 21
243.0271186801774
 31
0.0
  0
ARC
  5
2CD
330
37
100
AcDbEntity
  8
Sichtbare Kanten(TC_020513_DIN)
100
AcDbCircle
 10
429.8006920171896
 20
289.7771186801774
 30
0.0
 40
4.5
100
AcDbArc
 50
56.25101140411143
 51
303.7489885958886
  0
LINE
  5
2CE
330
37
100
AcDbEntity
  8
Sichtbare Kanten(TC_020513_DIN)
100
AcDbLine
 10
432.3006920171896
 20
286.0354612934035
 30
0.0
 11
432.3006920171896
 21
293.5187760669513
 31
0.0
  0
ARC
  5
2CF
330
37
100
AcDbEntity
  8
Sichtbare Kanten(TC_020513_DIN)
100
AcDbCircle
 10
420.3126143394561
 20
268.3509714702104
 30
0.0
 40
1.000000000000433
100
AcDbArc
 50
15.00000000000314
 51
33.96702882699024
  0
LINE
  5
2D0
330
37
100
AcDbEntity
  8
Sichtbare Kanten(TC_020513_DIN)
100
AcDbLine
 10
432.8006920172067
 20
267.0271186801774
 30
0.0
 11
432.8006920172065
 21
268.0271186801774
 31
0.0
  0
LINE
  5
2D1
330
37
100
AcDbEntity
  8
Sichtbare Kanten(TC_020513_DIN)
100
AcDbLine
 10
432.8006920172067
 20
267.0271186801774
 30
0.0
 11
432.8006920172067
 21
259.5271186801774
 31
0.0
  0
LINE
  5
2D2
330
37
100
AcDbEntity
  8
Sichtbare Kanten(TC_020513_DIN)
100
AcDbLine
 10
425.8258792235022
 20
251.6388901125236
 30
0.0
 11
421.2785401657455
 21
268.6097905153131
 31
0.0
  0
LINE
  5
2D3
330
37
100
AcDbEntity
  8
Sichtbare Kanten(TC_020513_DIN)
100
AcDbLine
 10
434.8327574033145
 20
259.5271186801774
 30
0.0
 11
432.8006920172071
 21
259.7766249363366
 31
0.0
  0
ARC
  5
2D4
330
37
100
AcDbEntity
  8
Sichtbare Kanten(TC_020513_DIN)
100
AcDbCircle
 10
427.2747679629357
 20
252.0271186801774
 30
0.0
 40
1.499999999999998
100
AcDbArc
 50
195.0000000000002
 51
270.0
  0
LINE
  5
2D5
330
37
100
AcDbEntity
  8
Sichtbare Kanten(TC_020513_DIN)
100
AcDbLine
 10
427.2747679629357
 20
250.5271186801774
 30
0.0
 11
429.300692017207
 21
250.5271186801774
 31
0.0
  0
ARC
  5
2D6
330
37
100
AcDbEntity
  8
Sichtbare Kanten(TC_020513_DIN)
100
AcDbCircle
 10
422.8006920171933
 20
270.0271186801774
 30
0.0
 40
2.000000000000028
100
AcDbArc
 50
180.0
 51
270.0
  0
ARC
  5
2D7
330
37
100
AcDbEntity
  8
Sichtbare Kanten(TC_020513_DIN)
100
AcDbCircle
 10
422.8006920171933
 20
309.5271186801774
 30
0.0
 40
2.000000000000001
100
AcDbArc
 50
90.0
 51
180.0
  0
LINE
  5
2D8
330
37
100
AcDbEntity
  8
Sichtbare Kanten(TC_020513_DIN)
100
AcDbLine
 10
420.8006920171933
 20
270.0271186801773
 30
0.0
 11
420.8006920171921
 21
274.0271186801774
 31
0.0
  0
LINE
  5
2D9
330
37
100
AcDbEntity
  8
Sichtbare Kanten(TC_020513_DIN)
100
AcDbLine
 10
420.8006920171921
 20
305.5271186801774
 30
0.0
 11
420.8006920171933
 21
309.5271186801774
 31
0.0
  0
LINE
  5
2DA
330
37
100
AcDbEntity
  8
Sichtbare Kanten(TC_020513_DIN)
100
AcDbLine
 10
420.8006920171921
 20
305.5271186801774
 30
0.0
 11
420.8006920171921
 21
274.0271186801774
 31
0.0
  0
LINE
  5
2DB
330
37
100
AcDbEntity
  8
Sichtbare Kanten(TC_020513_DIN)
100
AcDbLine
 10
433.3006920172066
 20
311.5271186801774
 30
0.0
 11
433.3006920172066
 21
314.5271186801774
 31
0.0
  0
LINE
  5
2DC
330
37
100
AcDbEntity
  8
Sichtbare Kanten(TC_020513_DIN)
100
AcDbLine
 10
431.3006920172066
 20
314.5271186801774
 30
0.0
 11
433.3006920172066
 21
314.5271186801774
 31
0.0
  0
LINE
  5
2DD
330
37
100
AcDbEntity
  8
Sichtbare Kanten(TC_020513_DIN)
100
AcDbLine
 10
431.3006920172066
 20
314.5271186801774
 30
0.0
 11
431.3006920172066
 21
311.5271186801774
 31
0.0
  0
LINE
  5
2DE
330
37
100
AcDbEntity
  8
Sichtbare Kanten(TC_020513_DIN)
100
AcDbLine
 10
433.3006920171932
 20
311.5271186801774
 30
0.0
 11
422.8006920171933
 21
311.5271186801774
 31
0.0
  0
LINE
  5
2DF
330
37
100
AcDbEntity
  8
Sichtbare Kanten(TC_020513_DIN)
100
AcDbLine
 10
433.3006920171932
 20
268.0271186801774
 30
0.0
 11
422.8006920171933
 21
268.0271186801774
 31
0.0
  0
LINE
  5
2E0
330
37
100
AcDbEntity
  8
Sichtbare Kanten(TC_020513_DIN)
100
AcDbLine
 10
433.3006920171914
 20
305.5271186801774
 30
0.0
 11
433.3006920171932
 21
311.5271186801774
 31
0.0
  0
LINE
  5
2E1
330
37
100
AcDbEntity
  8
Sichtbare Kanten(TC_020513_DIN)
100
AcDbLine
 10
433.3006920171914
 20
305.5271186801774
 30
0.0
 11
433.3006920171914
 21
274.0271186801774
 31
0.0
  0
LINE
  5
2E2
330
37
100
AcDbEntity
  8
Sichtbare Kanten(TC_020513_DIN)
100
AcDbLine
 10
433.3006920171932
 20
268.0271186801774
 30
0.0
 11
433.3006920171914
 21
274.0271186801774
 31
0.0
  0
LINE
  5
2E3
330
37
100
AcDbEntity
  8
Sichtbare Kanten(TC_020513_DIN)
100
AcDbLine
 10
446.5506920171931
 20
255.0271186801774
 30
0.0
 11
452.5506920171914
 21
255.0271186801774
 31
0.0
  0
LINE
  5
2E4
330
37
100
AcDbEntity
  8
Sichtbare Kanten(TC_020513_DIN)
100
AcDbLine
 10
484.5506920171914
 20
255.0271186801774
 30
0.0
 11
452.5506920171914
 21
255.0271186801774
 31
0.0
  0
LINE
  5
2E5
330
37
100
AcDbEntity
  8
Sichtbare Kanten(TC_020513_DIN)
100
AcDbLine
 10
484.5506920171914
 20
255.0271186801774
 30
0.0
 11
490.5506920171932
 21
255.0271186801774
 31
0.0
  0
LINE
  5
2E6
330
37
100
AcDbEntity
  8
Sichtbare Kanten(TC_020513_DIN)
100
AcDbLine
 10
446.5506920171931
 20
249.5271186801774
 30
0.0
 11
446.5506920171931
 21
255.0271186801774
 31
0.0
  0
LINE
  5
2E7
330
37
100
AcDbEntity
  8
Sichtbare Kanten(TC_020513_DIN)
100
AcDbLine
 10
446.5506920171931
 20
249.5271186801774
 30
0.0
 11
452.5506920171914
 21
249.5271186801774
 31
0.0
  0
LINE
  5
2E8
330
37
100
AcDbEntity
  8
Sichtbare Kanten(TC_020513_DIN)
100
AcDbLine
 10
484.5506920171914
 20
249.5271186801774
 30
0.0
 11
452.5506920171914
 21
249.5271186801774
 31
0.0
  0
LINE
  5
2E9
330
37
100
AcDbEntity
  8
Sichtbare Kanten(TC_020513_DIN)
100
AcDbLine
 10
484.5506920171914
 20
249.5271186801774
 30
0.0
 11
490.5506920171932
 21
249.5271186801774
 31
0.0
  0
LINE
  5
2EA
330
37
100
AcDbEntity
  8
Sichtbare Kanten(TC_020513_DIN)
100
AcDbLine
 10
490.5506920171932
 20
249.5271186801774
 30
0.0
 11
490.5506920171932
 21
255.0271186801774
 31
0.0
  0
LINE
  5
2EB
330
37
100
AcDbEntity
  8
Sichtbare Kanten(TC_020513_DIN)
100
AcDbLine
 10
446.800692017205
 20
230.0271186801774
 30
0.0
 11
444.8006920172049
 21
230.0271186801774
 31
0.0
  0
LINE
  5
2EC
330
37
100
AcDbEntity
  8
Sichtbare Kanten(TC_020513_DIN)
100
AcDbLine
 10
446.8006920172062
 20
233.0271186801774
 30
0.0
 11
440.2506920172061
 21
233.0271186801774
 31
0.0
  0
LINE
  5
2ED
330
37
100
AcDbEntity
  8
Sichtbare Kanten(TC_020513_DIN)
100
AcDbLine
 10
440.250692017205
 20
230.0271186801774
 30
0.0
 11
444.8006920172049
 21
230.0271186801774
 31
0.0
  0
LINE
  5
2EE
330
37
100
AcDbEntity
  8
Sichtbare Kanten(TC_020513_DIN)
100
AcDbLine
 10
440.2506920172085
 20
249.0271186801774
 30
0.0
 11
446.3006920172086
 21
249.0271186801774
 31
0.0
  0
LINE
  5
2EF
330
37
100
AcDbEntity
  8
Sichtbare Kanten(TC_020513_DIN)
100
AcDbLine
 10
440.250692017205
 20
230.0271186801774
 30
0.0
 11
440.250692017205
 21
249.0271186801774
 31
0.0
  0
LINE
  5
2F0
330
37
100
AcDbEntity
  8
Sichtbare Kanten(TC_020513_DIN)
100
AcDbLine
 10
444.8006920172049
 20
230.0271186801774
 30
0.0
 11
444.8006920172049
 21
228.5271186801774
 31
0.0
  0
LINE
  5
2F1
330
37
100
AcDbEntity
  8
Sichtbare Kanten(TC_020513_DIN)
100
AcDbLine
 10
438.345930112443
 20
259.0271186801774
 30
0.0
 11
440.250692017205
 21
249.0271186801774
 31
0.0
  0
LINE
  5
2F2
330
37
100
AcDbEntity
  8
Sichtbare Kanten(TC_020513_DIN)
100
AcDbLine
 10
438.250692017205
 20
259.5271186801774
 30
0.0
 11
438.345930112443
 21
259.0271186801774
 31
0.0
  0
LINE
  5
2F3
330
37
100
AcDbEntity
  8
Sichtbare Kanten(TC_020513_DIN)
100
AcDbLine
 10
438.2506920172051
 20
259.5271186801774
 30
0.0
 11
430.3006920172051
 21
259.5271186801774
 31
0.0
  0
LINE
  5
2F4
330
37
100
AcDbEntity
  8
Sichtbare Kanten(TC_020513_DIN)
100
AcDbLine
 10
444.8006920172049
 20
228.5271186801774
 30
0.0
 11
444.800692017205
 21
228.0271186801774
 31
0.0
  0
LINE
  5
2F5
330
37
100
AcDbEntity
  8
Sichtbare Kanten(TC_020513_DIN)
100
AcDbLine
 10
430.300692017205
 20
228.0271186801774
 30
0.0
 11
444.800692017205
 21
228.0271186801774
 31
0.0
  0
ARC
  5
2F6
330
37
100
AcDbEntity
  8
Sichtbare Kanten(TC_020513_DIN)
100
AcDbCircle
 10
430.3006920172051
 20
258.5271186801774
 30
0.0
 40
0.999999999999992
100
AcDbArc
 50
90.0
 51
180.0
  0
ARC
  5
2F7
330
37
100
AcDbEntity
  8
Sichtbare Kanten(TC_020513_DIN)
100
AcDbCircle
 10
430.3006920172051
 20
229.0271186801774
 30
0.0
 40
1.0
100
AcDbArc
 50
180.0
 51
270.0
  0
LINE
  5
2F8
330
37
100
AcDbEntity
  8
Sichtbare Kanten(TC_020513_DIN)
100
AcDbLine
 10
429.3006920172051
 20
258.5271186801774
 30
0.0
 11
429.3006920172051
 21
229.0271186801774
 31
0.0
  0
DIMENSION
  5
2F9
330
37
100
AcDbEntity
  8
Bemaßungen(TC_020513_DIN)
  6
Continuous
 62
     7
370
    25
100
AcDbDimension
  2
*D11
 10
365.0344435099792
 20
179.5271186801773
 30
0.0
 11
365.0344435099791
 21
195.5271186801773
 31
0.0
 70
   160
  1
M<>
 42
32.00000000000006
  3
STANDARD-TC_020513_DIN
100
AcDbAlignedDimension
 13
345.0344435099791
 23
211.5271186801774
 33
0.0
 14
345.0344435099791
 24
179.5271186801773
 34
0.0
 50
90.0
100
AcDbRotatedDimension
1001
ACAD
1000
DSTYLE
1002
{
1070
   271
1070
     2
1070
   272
1070
     2
1070
    48
1040
0.0
1070
    47
1040
0.0
1002
}
  0
LINE
  5
3BF
330
37
100
AcDbEntity
  8
Mittelpunktmarkierung(TC_020513_DIN)
  6
CHAIN
 48
10.00076675415039
100
AcDbLine
 10
244.5344435099791
 20
245.5271186801774
 30
0.0
 11
226.5344435099791
 21
245.5271186801774
 31
0.0
  0
LINE
  5
3C0
330
37
100
AcDbEntity
  8
Mittelpunktmarkierung(TC_020513_DIN)
  6
CHAIN
 48
10.00076675415039
100
AcDbLine
 10
235.5344435099791
 20
254.5271186801774
 30
0.0
 11
235.5344435099791
 21
236.5271186801773
 31
0.0
  0
LINE
  5
3C1
330
37
100
AcDbEntity
  8
Mittelpunktmarkierung(TC_020513_DIN)
  6
CHAIN
 48
10.00076675415039
100
AcDbLine
 10
320.5344435099791
 20
245.5271186801774
 30
0.0
 11
302.5344435099791
 21
245.5271186801774
 31
0.0
  0
LINE
  5
3C2
330
37
100
AcDbEntity
  8
Mittelpunktmarkierung(TC_020513_DIN)
  6
CHAIN
 48
10.00076675415039
100
AcDbLine
 10
311.5344435099791
 20
254.5271186801774
 30
0.0
 11
311.5344435099791
 21
236.5271186801773
 31
0.0
  0
LINE
  5
3C3
330
37
100
AcDbEntity
  8
Mittelpunktmarkierung(TC_020513_DIN)
  6
CHAIN
 48
23.99096870422363
100
AcDbLine
 10
489.5506920171882
 20
195.5271186801773
 30
0.0
 11
447.5506920171882
 21
195.5271186801773
 31
0.0
  0
LINE
  5
3C4
330
37
100
AcDbEntity
  8
Mittelpunktmarkierung(TC_020513_DIN)
  6
CHAIN
 48
23.99096870422363
100
AcDbLine
 10
468.5506920171882
 20
260.6162597877347
 30
0.0
 11
468.5506920171882
 21
174.5271186801773
 31
0.0
  0
LINE
  5
3C5
330
37
100
AcDbEntity
  8
Mittellinie(TC_020513_DIN)
  6
CHAIN
 48
7.778351783752441
100
AcDbLine
 10
446.0506920171899
 20
170.0271186801774
 30
0.0
 11
446.0506920171899
 21
184.0271186801774
 31
0.0
  0
LINE
  5
3C6
330
37
100
AcDbEntity
  8
Mittellinie(TC_020513_DIN)
  6
CHAIN
 48
7.778351783752441
100
AcDbLine
 10
491.0506920171899
 20
170.0271186801774
 30
0.0
 11
491.0506920171899
 21
184.0271186801774
 31
0.0
  0
LINE
  5
3C7
330
37
100
AcDbEntity
  8
Mittellinie(TC_020513_DIN)
  6
CHAIN
 48
8.19505500793457
100
AcDbLine
 10
435.5506920171982
 20
245.5271186801774
 30
0.0
 11
450.3006920171982
 21
245.5271186801774
 31
0.0
  0
LINE
  5
3C8
330
37
100
AcDbEntity
  8
Mittellinie(TC_020513_DIN)
  6
CHAIN
 48
8.19505500793457
100
AcDbLine
 10
486.8006920171981
 20
245.5271186801774
 30
0.0
 11
501.5506920171981
 21
245.5271186801774
 31
0.0
  0
LINE
  5
3C9
330
37
100
AcDbEntity
  8
Mittellinie(TC_020513_DIN)
  6
CHAIN
 48
7.778351783752441
100
AcDbLine
 10
339.5344435099791
 20
170.0271186801774
 30
0.0
 11
339.5344435099791
 21
184.0271186801774
 31
0.0
  0
LINE
  5
3CA
330
37
100
AcDbEntity
  8
Mittellinie(TC_020513_DIN)
  6
CHAIN
 48
7.778351783752441
100
AcDbLine
 10
207.5344435099791
 20
170.0271186801774
 30
0.0
 11
207.5344435099791
 21
184.0271186801774
 31
0.0
  0
DIMENSION
  5
3CB
330
37
100
AcDbEntity
  8
Bemaßungen(TC_020513_DIN)
  6
Continuous
 62
     7
370
    25
100
AcDbDimension
  2
*D12
 10
207.5344435099791
 20
150.0271186801774
 30
0.0
 11
273.5344435099791
 21
150.0271186801774
 31
0.0
 70
   160
  1
<>
 42
132.0
  3
STANDARD-TC_020513_DIN
100
AcDbAlignedDimension
 13
339.5344435099791
 23
170.0271186801774
 33
0.0
 14
207.5344435099791
 24
170.0271186801774
 34
0.0
 50
180.0
100
AcDbRotatedDimension
1001
ACAD
1000
DSTYLE
1002
{
1070
   271
1070
     2
1070
   272
1070
     2
1070
    48
1040
0.0
1070
    47
1040
0.0
1002
}
  0
DIMENSION
  5
490
330
37
100
AcDbEntity
  8
Bemaßungen(TC_020513_DIN)
  6
Continuous
 62
     7
370
    25
100
AcDbDimension
  2
*D13
 10
345.5344435099791
 20
128.1521186801773
 30
0.0
 11
273.5344435099791
 21
128.1521186801773
 31
0.0
 70
   160
  1
<>
 42
144.0
  3
STANDARD-TC_020513_DIN
100
AcDbAlignedDimension
 13
201.5344435099791
 23
196.1521186801774
 33
0.0
 14
345.5344435099791
 24
196.1521186801774
 34
0.0
100
AcDbRotatedDimension
1001
ACAD
1000
DSTYLE
1002
{
1070
   271
1070
     2
1070
   272
1070
     2
1070
    48
1040
0.0
1070
    47
1040
0.0
1002
}
  0
LINE
  5
555
330
37
100
AcDbEntity
  8
Mittellinie(TC_020513_DIN)
  6
CHAIN
 48
23.99096870422363
100
AcDbLine
 10
273.5344435099791
 20
319.98157493531
 30
0.0
 11
273.5344435099791
 21
169.9230198042572
 31
0.0
  0
DIMENSION
  5
556
330
37
100
AcDbEntity
  8
Bemaßungen(TC_020513_DIN)
  6
Continuous
 62
     7
370
    25
100
AcDbDimension
  2
*D14
 10
496.8006920171982
 20
337.5271186801774
 30
0.0
 11
458.8006920171951
 21
337.5271186801774
 31
0.0
 70
   160
  1
<>
 42
76.00000000000608
  3
STANDARD-TC_020513_DIN
100
AcDbAlignedDimension
 13
420.8006920171921
 23
305.5271186801774
 33
0.0
 14
496.8006920171982
 24
247.7771186801774
 34
0.0
 50
180.0
100
AcDbRotatedDimension
1001
ACAD
1000
DSTYLE
1002
{
1070
   271
1070
     2
1070
   272
1070
     2
1070
    48
1040
0.0
1070
    47
1040
0.0
1002
}
  0
DIMENSION
  5
61B
330
37
100
AcDbEntity
  8
Bemaßungen(TC_020513_DIN)
  6
Continuous
 62
     7
370
    25
100
AcDbDimension
  2
*D15
 10
491.0506920171899
 20
150.0271186801774
 30
0.0
 11
468.5506920171899
 21
150.0271186801774
 31
0.0
 70
   160
  1
<>
 42
45.0
  3
STANDARD-TC_020513_DIN
100
AcDbAlignedDimension
 13
446.0506920171899
 23
170.0271186801774
 33
0.0
 14
491.0506920171899
 24
170.0271186801774
 34
0.0
100
AcDbRotatedDimension
1001
ACAD
1000
DSTYLE
1002
{
1070
   271
1070
     2
1070
   272
1070
     2
1070
    48
1040
0.0
1070
    47
1040
0.0
1002
}
  0
DIMENSION
  5
6E0
330
37
100
AcDbEntity
  8
Bemaßungen(TC_020513_DIN)
  6
Continuous
 62
     7
370
    25
100
AcDbDimension
  2
*D16
 10
497.0506920171884
 20
128.1521186801773
 30
0.0
 11
468.5506920171883
 21
128.1521186801773
 31
0.0
 70
   160
  1
<>
 42
57.00000000000011
  3
STANDARD-TC_020513_DIN
100
AcDbAlignedDimension
 13
440.0506920171883
 23
175.0271186801774
 33
0.0
 14
497.0506920171884
 24
175.0271186801774
 34
0.0
 50
180.0
100
AcDbRotatedDimension
1001
ACAD
1000
DSTYLE
1002
{
1070
   271
1070
     2
1070
   272
1070
     2
1070
    48
1040
0.0
1070
    47
1040
0.0
1002
}
  0
DIMENSION
  5
7A5
330
37
100
AcDbEntity
  8
Bemaßungen(TC_020513_DIN)
  6
Continuous
 62
     7
370
    25
100
AcDbDimension
  2
*D17
 10
516.0506920171881
 20
179.0271186801774
 30
0.0
 11
516.0506920171881
 21
177.0271186801775
 31
0.0
 70
   160
  1
<>
 42
4.0
  3
STANDARD-TC_020513_DIN
100
AcDbAlignedDimension
 13
496.0506920171881
 23
175.0271186801774
 33
0.0
 14
485.5722550992636
 24
179.0271186801774
 34
0.0
 50
270.0
100
AcDbRotatedDimension
1001
ACAD
1000
DSTYLE
1002
{
1070
   271
1070
     2
1070
   272
1070
     2
1070
    48
1040
0.0
1070
    47
1040
0.0
1002
}
  0
DIMENSION
  5
884
330
37
100
AcDbEntity
  8
Bemaßungen(TC_020513_DIN)
  6
Continuous
 62
     7
370
    25
100
AcDbDimension
  2
*D18
 10
552.0506920171881
 20
175.0271186801774
 30
0.0
 11
552.0506920171881
 21
215.0271186801774
 31
0.0
 70
   160
  1
<>
 42
80.0
  3
STANDARD-TC_020513_DIN
100
AcDbAlignedDimension
 13
484.5506920171914
 23
255.0271186801774
 33
0.0
 14
496.0506920171881
 24
175.0271186801774
 34
0.0
 50
90.0
100
AcDbRotatedDimension
1001
ACAD
1000
DSTYLE
1002
{
1070
   271
1070
     2
1070
   272
1070
     2
1070
    48
1040
0.0
1070
    47
1040
0.0
1002
}
  0
MTEXT
  5
949
102
{ACAD_XDICTIONARY
360
966
102
}
102
{ACAD_REACTORS
330
94A
102
}
330
37
100
AcDbEntity
  8
Symbole(TC_020513_DIN)
 62
     7
100
AcDbMText
 10
508.1263342664875
 20
216.968370211516
 30
0.0
 40
6.99999988079071
 41
23.91310930252075
 71
     1
 72
     1
  1
{\U+00D8 5,5}
  7
Aktuell-BSI
 73
     1
 44
1.0
1001
ACAD
1000
MTEXTBEGIN
1070
    73
1070
     1
1070
    44
1040
1.0
1070
    74
1070
     0
1000
MTEXTEND
  0
LEADER
  5
94A
330
37
100
AcDbEntity
  8
Symbole(TC_020513_DIN)
  6
Continuous
 62
     7
370
    25
100
AcDbLeader
  3
STANDARD-TC_020513_DIN$7
 73
     0
 40
8.642564655000809
 41
23.12960397172592
 76
     3
 10
491.0506920171899
 20
179.0271186801774
 30
0.0
 10
503.1263342664874
 20
213.4683702711206
 30
0.0
 10
506.5263342664874
 20
213.4683702711206
 30
0.0
340
949
213
0.0
223
-3.499999940395355
233
0.0
1001
ACAD
1000
DSTYLE
1002
{
1070
    77
1070
     0
1002
}
  0
ENDSEC
  0
SECTION
  2
OBJECTS
  0
DICTIONARY
  5
C
330
0
100
AcDbDictionary
281
     1
  3
ACAD_COLOR
350
30
  3
ACAD_GROUP
350
D
  3
ACAD_LAYOUT
350
2F
  3
ACAD_MATERIAL
350
10
  3
ACAD_MLINESTYLE
350
2C
  3
ACAD_PLOTSETTINGS
350
2E
  3
ACAD_PLOTSTYLENAME
350
E
  3
ACAD_TABLESTYLE
350
31
  3
ACAD_VISUALSTYLE
350
14
  3
AcDbVariableDictionary
350
94B
  3
DWGPROPS
350
951
  0
DICTIONARY
  5
960
330
FA
100
AcDbDictionary
280
     1
281
     1
  3
ACAD_MTEXT_RT
360
961
  0
DICTIONARY
  5
962
330
10A
100
AcDbDictionary
280
     1
281
     1
  3
ACAD_MTEXT_RT
360
963
  0
DICTIONARY
  5
964
330
12B
100
AcDbDictionary
280
     1
281
     1
  3
ACAD_MTEXT_RT
360
965
  0
DICTIONARY
  5
966
330
949
100
AcDbDictionary
280
     1
281
     1
  3
ACAD_MTEXT_RT
360
967
  0
DICTIONARY
  5
30
102
{ACAD_REACTORS
330
C
102
}
330
C
100
AcDbDictionary
281
     1
  0
DICTIONARY
  5
D
102
{ACAD_REACTORS
330
C
102
}
330
C
100
AcDbDictionary
281
     1
  0
DICTIONARY
  5
2F
102
{ACAD_REACTORS
330
C
102
}
330
C
100
AcDbDictionary
281
     1
  3
Layout1
350
36
  3
Layout2
350
3E
  3
Model
350
3A
  0
DICTIONARY
  5
10
102
{ACAD_REACTORS
330
C
102
}
330
C
100
AcDbDictionary
281
     1
  3
ByBlock
350
12
  3
ByLayer
350
11
  3
Global
350
13
  0
DICTIONARY
  5
2C
102
{ACAD_REACTORS
330
C
102
}
330
C
100
AcDbDictionary
281
     1
  3
Standard
350
2D
  0
DICTIONARY
  5
2E
102
{ACAD_REACTORS
330
C
102
}
330
C
100
AcDbDictionary
281
     1
  0
ACDBDICTIONARYWDFLT
  5
E
102
{ACAD_REACTORS
330
C
102
}
330
C
100
AcDbDictionary
281
     1
  3
Normal
350
F
100
AcDbDictionaryWithDefault
340
F
  0
DICTIONARY
  5
31
102
{ACAD_REACTORS
330
C
102
}
330
C
100
AcDbDictionary
281
     1
  3
Standard
350
32
  0
DICTIONARY
  5
14
102
{ACAD_REACTORS
330
C
102
}
330
C
100
AcDbDictionary
281
     1
  3
2dWireframe
350
1A
  3
3D Hidden
350
1C
  3
3dWireframe
350
1B
  3
Basic
350
19
  3
Brighten
350
20
  3
ColorChange
350
24
  3
Conceptual
350
1D
  3
Dim
350
1F
  3
Facepattern
350
23
  3
Flat
350
15
  3
FlatWithEdges
350
16
  3
Gouraud
350
17
  3
GouraudWithEdges
350
18
  3
Linepattern
350
22
  3
Realistic
350
1E
  3
Thicken
350
21
  0
DICTIONARY
  5
94B
102
{ACAD_REACTORS
330
C
102
}
330
C
100
AcDbDictionary
281
     1
  3
CTABLESTYLE
350
94C
  3
DIMASSOC
350
950
  3
HIDETEXT
350
94F
  3
INDEXCTL
350
94E
  3
SORTENTS
350
94D
  0
XRECORD
  5
951
102
{ACAD_REACTORS
330
C
102
}
330
C
100
AcDbXrecord
280
     1
  1
DWGPROPS COOKIE
  2

  3

  4
Tanck
  6

  7

  8

  9

300
Manager=
301
Firma=
302
Kategorie=
303
Bauteilnummer=MMAP 16 CS32
304
Bezeichnung=
305
Projekt=
306
Konstrukteur=Tanck
307
Ingenieur=
308
Bevollmächtigter=
309
Kostenstelle=
 40
0.0000558912037037
 41
2454112.48672662
 42
2454112.48672662
  1

 90
       22
300
Zulieferer=
300
Benutzerstatus=
300
Konstruktionsstatus=InBearbeitung
300
Kontrolliert von=
300
Konstruktion genehmigt von=
300
Fertigung genehmigt von=
300
FirstViewScale:1=1:2
300
SaveDate=01/04/2007
300
SaveTime=14:09
300
PaperSize=A4
300
AllViewScales=1:2
300
FirstViewScale=1:2
  0
XRECORD
  5
961
102
{ACAD_REACTORS
330
960
102
}
330
960
100
AcDbXrecord
280
     1
 40
45260.0
  1
Für spanlose Bearbeitung
  0
XRECORD
  5
963
102
{ACAD_REACTORS
330
962
102
}
330
962
100
AcDbXrecord
280
     1
 40
49954.0
  1
Alle nicht bemaßten Radien R
  0
XRECORD
  5
965
102
{ACAD_REACTORS
330
964
102
}
330
964
100
AcDbXrecord
280
     1
 40
53914.0
  1
Werkstückkanten\Pnach ISO 13715
  0
XRECORD
  5
967
102
{ACAD_REACTORS
330
966
102
}
330
966
100
AcDbXrecord
280
     1
 40
5749.0
  1
{Ø 5,5}
  0
LAYOUT
  5
36
102
{ACAD_XDICTIONARY
360
95A
102
}
102
{ACAD_REACTORS
330
2F
102
}
330
2F
100
AcDbPlotSettings
  1

  2

  4

  6

 40
0.0
 41
0.0
 42
0.0
 43
0.0
 44
0.0
 45
0.0
 46
0.0
 47
0.0
 48
0.0
 49
0.0
140
0.0
141
0.0
142
1.0
143
1.0
 70
   688
 72
     0
 73
     0
 74
     5
  7

 75
    16
147
1.0
148
0.0
149
0.0
100
AcDbLayout
  1
Layout1
 70
     1
 71
     1
 10
0.0
 20
0.0
 11
12.0
 21
9.0
 12
0.0
 22
0.0
 32
0.0
 14
0.0
 24
0.0
 34
0.0
 15
0.0
 25
0.0
 35
0.0
146
0.0
 13
0.0
 23
0.0
 33
0.0
 16
1.0
 26
0.0
 36
0.0
 17
0.0
 27
1.0
 37
0.0
 76
     0
330
33
  0
LAYOUT
  5
3E
102
{ACAD_XDICTIONARY
360
95E
102
}
102
{ACAD_REACTORS
330
2F
102
}
330
2F
100
AcDbPlotSettings
  1

  2

  4

  6

 40
0.0
 41
0.0
 42
0.0
 43
0.0
 44
0.0
 45
0.0
 46
0.0
 47
0.0
 48
0.0
 49
0.0
140
0.0
141
0.0
142
1.0
143
1.0
 70
   688
 72
     0
 73
     0
 74
     5
  7

 75
    16
147
1.0
148
0.0
149
0.0
100
AcDbLayout
  1
Layout2
 70
     1
 71
     2
 10
0.0
 20
0.0
 11
12.0
 21
9.0
 12
0.0
 22
0.0
 32
0.0
 14
0.0
 24
0.0
 34
0.0
 15
0.0
 25
0.0
 35
0.0
146
0.0
 13
0.0
 23
0.0
 33
0.0
 16
1.0
 26
0.0
 36
0.0
 17
0.0
 27
1.0
 37
0.0
 76
     0
330
3B
  0
LAYOUT
  5
3A
102
{ACAD_XDICTIONARY
360
95C
102
}
102
{ACAD_REACTORS
330
2F
102
}
330
2F
100
AcDbPlotSettings
  1

  2

  4

  6

 40
0.0
 41
0.0
 42
0.0
 43
0.0
 44
0.0
 45
0.0
 46
0.0
 47
0.0
 48
0.0
 49
0.0
140
0.0
141
0.0
142
1.0
143
1.0
 70
  1712
 72
     0
 73
     0
 74
     0
  7

 75
     0
147
1.0
148
0.0
149
0.0
100
AcDbLayout
  1
Model
 70
     1
 71
     0
 10
0.0
 20
0.0
 11
12.0
 21
9.0
 12
0.0
 22
0.0
 32
0.0
 14
0.0
 24
0.0
 34
0.0
 15
0.0
 25
0.0
 35
0.0
146
0.0
 13
0.0
 23
0.0
 33
0.0
 16
1.0
 26
0.0
 36
0.0
 17
0.0
 27
1.0
 37
0.0
 76
     0
330
37
  0
MATERIAL
  5
12
102
{ACAD_XDICTIONARY
360
954
102
}
102
{ACAD_REACTORS
330
10
102
}
330
10
100
AcDbMaterial
  1
ByBlock
  0
MATERIAL
  5
11
102
{ACAD_XDICTIONARY
360
952
102
}
102
{ACAD_REACTORS
330
10
102
}
330
10
100
AcDbMaterial
  1
ByLayer
  0
MATERIAL
  5
13
102
{ACAD_XDICTIONARY
360
956
102
}
102
{ACAD_REACTORS
330
10
102
}
330
10
100
AcDbMaterial
  1
Global
  0
MLINESTYLE
  5
2D
102
{ACAD_REACTORS
330
2C
102
}
330
2C
100
AcDbMlineStyle
  2
STANDARD
 70
     0
  3

 62
   256
 51
90.0
 52
90.0
 71
     2
 49
0.5
 62
   256
  6
BYLAYER
 49
-0.5
 62
   256
  6
BYLAYER
  0
ACDBPLACEHOLDER
  5
F
102
{ACAD_REACTORS
330
E
102
}
330
E
  0
TABLESTYLE
  5
32
102
{ACAD_XDICTIONARY
360
958
102
}
102
{ACAD_REACTORS
330
31
102
}
330
31
100
AcDbTableStyle
  3
Standard
 70
     0
 71
     0
 40
0.06
 41
0.06
280
     0
281
     0
  7
Standard
140
0.18
170
     2
 62
     0
 63
     7
283
     0
274
    -2
284
     1
 64
     0
275
    -2
285
     1
 65
     0
276
    -2
286
     1
 66
     0
277
    -2
287
     1
 67
     0
278
    -2
288
     1
 68
     0
279
    -2
289
     1
 69
     0
  7
Standard
140
0.25
170
     5
 62
     0
 63
     7
283
     0
274
    -2
284
     1
 64
     0
275
    -2
285
     1
 65
     0
276
    -2
286
     1
 66
     0
277
    -2
287
     1
 67
     0
278
    -2
288
     1
 68
     0
279
    -2
289
     1
 69
     0
  7
Standard
140
0.18
170
     5
 62
     0
 63
     7
283
     0
274
    -2
284
     1
 64
     0
275
    -2
285
     1
 65
     0
276
    -2
286
     1
 66
     0
277
    -2
287
     1
 67
     0
278
    -2
288
     1
 68
     0
279
    -2
289
     1
 69
     0
  0
VISUALSTYLE
  5
1A
102
{ACAD_REACTORS
330
14
102
}
330
14
100
AcDbVisualStyle
  2
2dWireframe
 70
     4
 71
     0
 72
     2
 73
     0
 90
        0
 40
-0.6
 41
-30.0
 62
     5
 63
     7
 74
     1
 91
        4
 64
     7
 65
   257
 75
     1
175
     1
 42
1.0
 92
        0
 66
   257
 43
1.0
 76
     1
 77
     6
 78
     2
 67
     7
 79
     5
170
     0
171
     0
290
     0
174
     0
 93
        1
 44
0.0
173
     0
291
     0
 45
0.0
1001
ACAD
1000
AcDbSavedByObjectVersion
1070
     0
  0
VISUALSTYLE
  5
1C
102
{ACAD_REACTORS
330
14
102
}
330
14
100
AcDbVisualStyle
  2
3D Hidden
 70
     6
 71
     1
 72
     2
 73
     2
 90
        0
 40
-0.6
 41
-30.0
 62
     5
 63
     7
 74
     2
 91
        2
 64
     7
 65
   257
 75
     2
175
     1
 42
40.0
 92
        0
 66
   257
 43
1.0
 76
     1
 77
     6
 78
     2
 67
     7
 79
     3
170
     0
171
     0
290
     0
174
     0
 93
        1
 44
0.0
173
     0
291
     0
 45
0.0
1001
ACAD
1000
AcDbSavedByObjectVersion
1070
     0
  0
VISUALSTYLE
  5
1B
102
{ACAD_REACTORS
330
14
102
}
330
14
100
AcDbVisualStyle
  2
3dWireframe
 70
     5
 71
     0
 72
     2
 73
     0
 90
        0
 40
-0.6
 41
-30.0
 62
     5
 63
     7
 74
     1
 91
        4
 64
     7
 65
   257
 75
     1
175
     1
 42
1.0
 92
        0
 66
   257
 43
1.0
 76
     1
 77
     6
 78
     2
 67
     7
 79
     5
170
     0
171
     0
290
     0
174
     0
 93
        1
 44
0.0
173
     0
291
     0
 45
0.0
1001
ACAD
1000
AcDbSavedByObjectVersion
1070
     0
  0
VISUALSTYLE
  5
19
102
{ACAD_REACTORS
330
14
102
}
330
14
100
AcDbVisualStyle
  2
Basic
 70
     7
 71
     1
 72
     0
 73
     1
 90
        0
 40
-0.6
 41
-30.0
 62
     5
 63
     7
 74
     0
 91
        4
 64
     7
 65
   257
 75
     1
175
     1
 42
1.0
 92
        8
 66
     7
 43
1.0
 76
     1
 77
     6
 78
     2
 67
     7
 79
     5
170
     0
171
     0
290
     0
174
     0
 93
        1
 44
0.0
173
     0
291
     1
 45
0.0
1001
ACAD
1000
AcDbSavedByObjectVersion
1070
     0
  0
VISUALSTYLE
  5
20
102
{ACAD_REACTORS
330
14
102
}
330
14
100
AcDbVisualStyle
  2
Brighten
 70
    12
 71
     2
 72
     2
 73
     0
 90
        0
 40
-0.6
 41
-30.0
 62
     5
 63
     7
 74
     1
 91
        4
 64
     7
 65
   257
 75
     1
175
     1
 42
1.0
 92
        8
 66
     7
 43
1.0
 76
     1
 77
     6
 78
     2
 67
     7
 79
     5
170
     0
171
     0
290
     0
174
     0
 93
        1
 44
50.0
173
     0
291
     1
 45
0.0
1001
ACAD
1000
AcDbSavedByObjectVersion
1070
     0
  0
VISUALSTYLE
  5
24
102
{ACAD_REACTORS
330
14
102
}
330
14
100
AcDbVisualStyle
  2
ColorChange
 70
    16
 71
     2
 72
     2
 73
     3
 90
        0
 40
-0.6
 41
-30.0
 62
     5
 63
     8
 74
     1
 91
        4
 64
     7
 65
   257
 75
     1
175
     1
 42
1.0
 92
        8
 66
     8
 43
1.0
 76
     1
 77
     6
 78
     2
 67
     7
 79
     5
170
     0
171
     0
290
     0
174
     0
 93
        1
 44
0.0
173
     0
291
     1
 45
0.0
1001
ACAD
1000
AcDbSavedByObjectVersion
1070
     0
  0
VISUALSTYLE
  5
1D
102
{ACAD_REACTORS
330
14
102
}
330
14
100
AcDbVisualStyle
  2
Conceptual
 70
     9
 71
     3
 72
     2
 73
     0
 90
        0
 40
-0.6
 41
-30.0
 62
     5
 63
     7
 74
     2
 91
        2
 64
     7
 65
   257
 75
     1
175
     1
 42
40.0
 92
        8
 66
     7
 43
1.0
 76
     1
 77
     6
 78
     2
 67
     7
 79
     3
170
     0
171
     0
290
     0
174
     0
 93
        1
 44
0.0
173
     0
291
     0
 45
0.0
1001
ACAD
1000
AcDbSavedByObjectVersion
1070
     0
  0
VISUALSTYLE
  5
1F
102
{ACAD_REACTORS
330
14
102
}
330
14
100
AcDbVisualStyle
  2
Dim
 70
    11
 71
     2
 72
     2
 73
     0
 90
        0
 40
-0.6
 41
-30.0
 62
     5
 63
     7
 74
     1
 91
        4
 64
     7
 65
   257
 75
     1
175
     1
 42
1.0
 92
        8
 66
     7
 43
1.0
 76
     1
 77
     6
 78
     2
 67
     7
 79
     5
170
     0
171
     0
290
     0
174
     0
 93
        1
 44
-50.0
173
     0
291
     1
 45
0.0
1001
ACAD
1000
AcDbSavedByObjectVersion
1070
     0
  0
VISUALSTYLE
  5
23
102
{ACAD_REACTORS
330
14
102
}
330
14
100
AcDbVisualStyle
  2
Facepattern
 70
    15
 71
     2
 72
     2
 73
     0
 90
        0
 40
-0.6
 41
-30.0
 62
     5
 63
     7
 74
     1
 91
        4
 64
     7
 65
   257
 75
     1
175
     1
 42
1.0
 92
        8
 66
     7
 43
1.0
 76
     1
 77
     6
 78
     2
 67
     7
 79
     5
170
     0
171
     0
290
     0
174
     0
 93
        1
 44
0.0
173
     0
291
     1
 45
0.0
1001
ACAD
1000
AcDbSavedByObjectVersion
1070
     0
  0
VISUALSTYLE
  5
15
102
{ACAD_REACTORS
330
14
102
}
330
14
100
AcDbVisualStyle
  2
Flat
 70
     0
 71
     2
 72
     1
 73
     1
 90
        2
 40
-0.6
 41
30.0
 62
     5
 63
     7
 74
     0
 91
        4
 64
     7
 65
   257
 75
     1
175
     1
 42
1.0
 92
        8
 66
     7
 43
1.0
 76
     1
 77
     6
 78
     2
 67
     7
 79
     5
170
     0
171
     0
290
     0
174
     0
 93
       13
 44
0.0
173
     0
291
     1
 45
0.0
1001
ACAD
1000
AcDbSavedByObjectVersion
1070
     0
  0
VISUALSTYLE
  5
16
102
{ACAD_REACTORS
330
14
102
}
330
14
100
AcDbVisualStyle
  2
FlatWithEdges
 70
     1
 71
     2
 72
     1
 73
     1
 90
        2
 40
-0.6
 41
30.0
 62
     5
 63
     7
 74
     1
 91
        4
 64
     7
 65
   257
 75
     1
175
     1
 42
1.0
 92
        0
 66
   257
 43
1.0
 76
     1
 77
     6
 78
     2
 67
     7
 79
     5
170
     0
171
     0
290
     0
174
     0
 93
       13
 44
0.0
173
     0
291
     1
 45
0.0
1001
ACAD
1000
AcDbSavedByObjectVersion
1070
     0
  0
VISUALSTYLE
  5
17
102
{ACAD_REACTORS
330
14
102
}
330
14
100
AcDbVisualStyle
  2
Gouraud
 70
     2
 71
     2
 72
     2
 73
     1
 90
        2
 40
-0.6
 41
30.0
 62
     5
 63
     7
 74
     0
 91
        4
 64
     7
 65
   257
 75
     1
175
     1
 42
1.0
 92
        0
 66
     7
 43
1.0
 76
     1
 77
     6
 78
     2
 67
     7
 79
     5
170
     0
171
     0
290
     0
174
     0
 93
       13
 44
0.0
173
     0
291
     1
 45
0.0
1001
ACAD
1000
AcDbSavedByObjectVersion
1070
     0
  0
VISUALSTYLE
  5
18
102
{ACAD_REACTORS
330
14
102
}
330
14
100
AcDbVisualStyle
  2
GouraudWithEdges
 70
     3
 71
     2
 72
     2
 73
     1
 90
        2
 40
-0.6
 41
30.0
 62
     5
 63
     7
 74
     1
 91
        4
 64
     7
 65
   257
 75
     1
175
     1
 42
1.0
 92
        0
 66
   257
 43
1.0
 76
     1
 77
     6
 78
     2
 67
     7
 79
     5
170
     0
171
     0
290
     0
174
     0
 93
       13
 44
0.0
173
     0
291
     1
 45
0.0
1001
ACAD
1000
AcDbSavedByObjectVersion
1070
     0
  0
VISUALSTYLE
  5
22
102
{ACAD_REACTORS
330
14
102
}
330
14
100
AcDbVisualStyle
  2
Linepattern
 70
    14
 71
     2
 72
     2
 73
     0
 90
        0
 40
-0.6
 41
-30.0
 62
     5
 63
     7
 74
     1
 91
        4
 64
     7
 65
   257
 75
     7
175
     7
 42
1.0
 92
        8
 66
     7
 43
1.0
 76
     1
 77
     6
 78
     2
 67
     7
 79
     5
170
     0
171
     0
290
     0
174
     0
 93
        1
 44
0.0
173
     0
291
     1
 45
0.0
1001
ACAD
1000
AcDbSavedByObjectVersion
1070
     0
  0
VISUALSTYLE
  5
1E
102
{ACAD_REACTORS
330
14
102
}
330
14
100
AcDbVisualStyle
  2
Realistic
 70
     8
 71
     2
 72
     2
 73
     0
 90
        0
 40
-0.6
 41
-30.0
 62
     5
 63
     7
 74
     1
 91
        0
 64
     7
 65
   257
 75
     1
175
     1
 42
1.0
 92
        8
 66
     8
 43
1.0
 76
     1
 77
     6
 78
     2
 67
     7
 79
     5
170
     0
171
     0
290
     0
174
     0
 93
       13
 44
0.0
173
     0
291
     0
 45
0.0
1001
ACAD
1000
AcDbSavedByObjectVersion
1070
     0
  0
VISUALSTYLE
  5
21
102
{ACAD_REACTORS
330
14
102
}
330
14
100
AcDbVisualStyle
  2
Thicken
 70
    13
 71
     2
 72
     2
 73
     0
 90
        0
 40
-0.6
 41
-30.0
 62
     5
 63
     7
 74
     1
 91
        4
 64
     7
 65
   257
 75
     1
175
     1
 42
1.0
 92
       12
 66
     7
 43
1.0
 76
     1
 77
     6
 78
     2
 67
     7
 79
     5
170
     0
171
     0
290
     0
174
     0
 93
        1
 44
0.0
173
     0
291
     1
 45
0.0
1001
ACAD
1000
AcDbSavedByObjectVersion
1070
     0
  0
DICTIONARYVAR
  5
94C
102
{ACAD_REACTORS
330
94B
102
}
330
94B
100
DictionaryVariables
280
     0
  1
STANDARD
  0
DICTIONARYVAR
  5
950
102
{ACAD_REACTORS
330
94B
102
}
330
94B
100
DictionaryVariables
280
     0
  1
1
  0
DICTIONARYVAR
  5
94F
102
{ACAD_REACTORS
330
94B
102
}
330
94B
100
DictionaryVariables
280
     0
  1
1
  0
DICTIONARYVAR
  5
94E
102
{ACAD_REACTORS
330
94B
102
}
330
94B
100
DictionaryVariables
280
     0
  1
0
  0
DICTIONARYVAR
  5
94D
102
{ACAD_REACTORS
330
94B
102
}
330
94B
100
DictionaryVariables
280
     0
  1
127
  0
DICTIONARY
  5
95A
330
36
100
AcDbDictionary
280
     1
281
     1
  3
ACAD_XREC_ROUNDTRIP
360
95B
  0
DICTIONARY
  5
95E
330
3E
100
AcDbDictionary
280
     1
281
     1
  3
ACAD_XREC_ROUNDTRIP
360
95F
  0
DICTIONARY
  5
95C
330
3A
100
AcDbDictionary
280
     1
281
     1
  3
ACAD_XREC_ROUNDTRIP
360
95D
  0
DICTIONARY
  5
954
330
12
100
AcDbDictionary
280
     1
281
     1
  3
ACAD_XREC_ROUNDTRIP
360
955
  0
DICTIONARY
  5
952
330
11
100
AcDbDictionary
280
     1
281
     1
  3
ACAD_XREC_ROUNDTRIP
360
953
  0
DICTIONARY
  5
956
330
13
100
AcDbDictionary
280
     1
281
     1
  3
ACAD_XREC_ROUNDTRIP
360
957
  0
DICTIONARY
  5
958
330
32
100
AcDbDictionary
280
     1
281
     1
  3
ACAD_XREC_ROUNDTRIP
360
959
  0
XRECORD
  5
95B
102
{ACAD_REACTORS
330
95A
102
}
330
95A
100
AcDbXrecord
280
     1
102
SHADEPLOT
 70
     0
102
SHADEPLOTRESLEVEL
 70
     2
102
SHADEPLOTCUSTOMDPI
 70
   300
  0
XRECORD
  5
95F
102
{ACAD_REACTORS
330
95E
102
}
330
95E
100
AcDbXrecord
280
     1
102
SHADEPLOT
 70
     0
102
SHADEPLOTRESLEVEL
 70
     2
102
SHADEPLOTCUSTOMDPI
 70
   300
  0
XRECORD
  5
95D
102
{ACAD_REACTORS
330
95C
102
}
330
95C
100
AcDbXrecord
280
     1
102
SHADEPLOT
 70
     0
102
SHADEPLOTRESLEVEL
 70
     2
102
SHADEPLOTCUSTOMDPI
 70
   300
  0
XRECORD
  5
955
102
{ACAD_REACTORS
330
954
102
}
330
954
100
AcDbXrecord
280
     1
102
MATERIAL
148
0.0
149
0.0
149
0.0
 93
        0
 94
       63
282
     0
 72
     1
 77
     1
171
     1
175
     1
179
     1
273
     0
  0
XRECORD
  5
953
102
{ACAD_REACTORS
330
952
102
}
330
952
100
AcDbXrecord
280
     1
102
MATERIAL
148
0.0
149
0.0
149
0.0
 93
        0
 94
       63
282
     0
 72
     1
 77
     1
171
     1
175
     1
179
     1
273
     0
  0
XRECORD
  5
957
102
{ACAD_REACTORS
330
956
102
}
330
956
100
AcDbXrecord
280
     1
102
MATERIAL
148
0.0
149
0.0
149
0.0
 93
        0
 94
       63
282
     0
 72
     1
 77
     1
171
     1
175
     1
179
     1
273
     0
  0
XRECORD
  5
959
102
{ACAD_REACTORS
330
958
102
}
330
958
100
AcDbXrecord
280
     1
102
ACAD_ROUNDTRIP_PRE2007_TABLESTYLE
 90
      512
 91
        0
  1

 92
      512
 93
        0
  2

 94
      512
 95
        0
  3

  0
ENDSEC
  0
EOF
